Welcome Guest ( Log In | Register )

> И неформату есть предел.

Рэп/хип-хоп/шансон/поп удаляются. Для них есть свои порталы.

> Anna Von Hausswolff - Ceremony (2012), Experimental Rock/Neoclassical Darkwave
post Feb 22 2018, 22:53:04
Post #1

ashes of yesterdays
**********
Group: Металариец
Posts: 1,056
Releases: 8
On Forums: 12 years 4 months
Thanks: 2678 time(s)
Unknown


(IMG:http://metalarea.org/images/audiocovers/2018_Feb/acov_tid302405_thumb.jpg)

*Artist: Anna Von Hausswolff
*Album: Ceremony
*Year: 2012
*Genre: Experimental Rock/Neoclassical Darkwave
*Country: Sweden (IMG:http://metalarea.org/forum/style_images/flags/Sweden.png)
*Format: mp3@CBR320kbps
*Size: 143MB

Tracklist:
1. Epitaph Of Theodor 05:25
2. Deathbed 08:38
3. Mountains Crave 03:35
4. Goodbye 06:16
5. Red Sun 03:17
6. Epitaph Of Daniel 03:10
7. No Body 02:33
8. Lithurgy Of Light 05:01
9. Harmonica 04:22
10. Ocean 05:44
11. Sova 03:24
12. Funeral For My Future Children 04:42
13. Sun Rise 04:52
******************************
Total playing time: 1:00:59



Extended info


Technical info
(IMG:http://metalarea.org/images/spectrogram/2018_Feb/02ba374541737c263323ea4ff1a0728a.png)
Input File: 06. Epitaph of Daniel.mp3
Channels : 2
Sample Rate : 44100
Precision : 16-bit
Duration : 00:03:11.05 = 8425481 samples = 14329 CDDA sectors
File Size : 7.75M
Bit Rate : 325k
Sample Encoding: MPEG audio (layer I, II or III)
Comments :
Title=Epitaph of Daniel
Artist=Anna von Hausswolff
Album=Ceremony
Tracknumber=6
Year=2012
Genre=Experimental Rock/Neoclassical Darkwave



Register


This post has been edited by Borderline1991: Feb 23 2018, 07:44:11


Go to the top of the page
  Insert nick Quick quote
+Quote Post
 
Start new topic
Replies (1 - 1)
post Feb 27 2018, 14:14:51
Post #2

Правь статус, ####!111
**************
Group: Металариец
Posts: 43,942
Releases: 669
On Forums: 10 years 5 months
Thanks: 35205 time(s)
Russian Federation


@320

Register


Thanks:
Go to the top of the page
  Insert nick Quick quote
+Quote Post

Reply to this topicStart new topic
1 User(s) are reading this topic (1 Guests and 0 Anonymous Users)
0 Members:

 



- Lo-Fi Version Support form
Copyrights and abuse reports form
Time is now: 13th November 2019 - 05:08:30