Welcome Guest ( Log In | Register )

> Cavernlord - Ubiquitous Falsehood (2018), Raw Black/Doom Metal
post Feb 26 2018, 18:29:36
Post #1

Каждое ваше "Спасибо" помогает мне понять, что я делаю новости не напрасно.
***********
Group: Металариец
Posts: 1,929
Releases: 1688
From: Одесса
On Forums: 11 years 3 months
Thanks: 14470 time(s)
Ukraine


(IMG:http://metalarea.org/images/audiocovers/2018_Feb/acov_tid302570_thumb.jpg)

*Artist: Cavernlord
*Album: Ubiquitous Falsehood
*Year: 2018
*Genre: Raw Black/Doom Metal
*Country: United States (IMG:http://metalarea.org/forum/style_images/flags/United%20States.png)
*Format: mp3@CBR320kbps
*Size: 101MB

Tracklist:
1. Simple Cloven 05:01
2. Penny for Your Thoughts 03:12
3. Love Tunnel 03:23
4. Lotion's in the Bucket 05:18
5. Pink Slip 04:52
6. Sorrow 04:07
7. Lungs of Swamp 04:28
8. Man was the Lord of the Fire 02:30
9. Caffeine and Boredom 03:18
10. Bury the Dead 06:13
******************************
Total playing time: 42:22



Extended info
Line - up:
N. Leveck - Everything (Anaplasmataceae, Boarstusk, Khyæghürr, Natanas, Sandwich Full of Fuck, ex-Enord Khan, Achondroplastic Colostomy, Filbuth, Hydrogen Sulfide, Telerumination, The Innumerous, Uls De Tol)

Guest/Session:
Aubry Leveck - Vocals (additional) (track 5, 6)

(IMG:https://www.metal-archives.com/images/3/5/4/0/3540421975_photo.jpg?3704)


Technical info
(IMG:http://metalarea.org/images/spectrogram/2018_Feb/55abbeb84d0b6dd47296df4ce2abffab.png)
Input File: 06. Sorrow.mp3
Channels : 2
Sample Rate : 48000
Precision : 16-bit
Duration : 00:04:07.47 = 11878416 samples ~ 18560 CDDA sectors
File Size : 9.90M
Bit Rate : 320k
Sample Encoding: MPEG audio (layer I, II or III)
Comments :
Title=Sorrow
Artist=Cavernlord
Album=Ubiquitous Falsehood
Tracknumber=6
Year=2018
Genre=Raw Black / Doom Metal



Register


Go to the top of the page
  Insert nick Quick quote
+Quote Post
 
Start new topic
Replies (1 - 1)
post Mar 1 2018, 17:30:15
Post #2

кручу наждак
**************
Group: Металариец
Posts: 4,031
Releases: 97
From: Самара
On Forums: 9 years 4 months
Thanks: 3065 time(s)
Russian Federation


Каким боком сюда raw black? Авангардно-психоделическое нечто.
Go to the top of the page
  Insert nick Quick quote
+Quote Post

Reply to this topicStart new topic
1 User(s) are reading this topic (1 Guests and 0 Anonymous Users)
0 Members:

 



- Lo-Fi Version Support form
Copyrights and abuse reports form
Time is now: 17th September 2019 - 16:01:39