Welcome Guest ( Log In | Register )

> Sojourner - South Away (Summoning Cover) [single] (2017), Atmospheric Black Metal
post Feb 27 2018, 04:09:46
Post #1

Правь статус, ####!111
**************
Group: Металариец
Posts: 2,456
Releases: 34
From: Nakhodka
On Forums: 9 years 11 months
Thanks: 2186 time(s)
Russian Federation


(IMG:https://metalarea.org/images/audiocovers/2018_Feb/acov_tid302583_thumb.jpg)

*Artist: Sojourner
*Album: South Away (Summoning Cover) [single]
*Year: 2017
*Genre: Atmospheric Black Metal
*Country: New Zealand (IMG:https://metalarea.org/forum/style_images/flags/New%20Zealand.png)
*Format: mp3@CBR320kbps
*Size: 15MB

Tracklist:
1. South Away (Summoning cover)
******************************
Total playing time: 6:21

Technical info
(IMG:https://metalarea.org/images/spectrogram/2018_Feb/f87e77159b8327c3a51d444b3380d389.png)
Input File: South Away (Summoning cover).mp3
Channels : 2
Sample Rate : 44100
Precision : 16-bit
Duration : 00:06:21.89 = 16841481 samples = 28642 CDDA sectors
File Size : 15.4M
Bit Rate : 322k
Sample Encoding: MPEG audio (layer I, II or III)
Comments :
Title=South Away (Summoning cover)
Artist=Sojourner
Album=South Away (Summoning cover)
Tracknumber=1
Year=2017



Register


Go to the top of the page
  Insert nick Quick quote
+Quote Post
 
Start new topic
Replies (1 - 1)
post May 23 2020, 14:30:44
Post #2

Правь статус, ####!111
**************
Group: Металариец
Posts: 2,842
Releases: 0
From: MoscoW
On Forums: 13 years 5 months
Thanks: 2205 time(s)
Russian Federation


Можно скачать Б/П в 320kbps!!!:

(IMG:style_emoticons/default/metaler.gif)
Go to the top of the page
  Insert nick Quick quote
+Quote Post

Reply to this topicStart new topic
2 User(s) are reading this topic (2 Guests and 0 Anonymous Users)
0 Members:

 



- Lo-Fi Version Support form
Copyrights and abuse reports form
Time is now: 28th May 2020 - 09:27:22