Welcome Guest ( Log In | Register )

> Celestial Rite & Funeral Storm - Funeral Rite [split] (2017), Melodic Black Metal | Black Metal
post Feb 27 2018, 11:41:56
Post #1


Group Icon
Group: S-moderation team
Posts: 11,158
Releases: 1438
From: Zagreb
On Forums: 8 years 4 months
Thanks: 47735 time(s)
Croatia


(IMG:http://metalarea.org/images/audiocovers/2018_Feb/acov_tid302598_thumb.jpg)

*Artist: Celestial Rite & Funeral Storm
*Album: Funeral Rite [split]
*Year: 2017
*Genre: Melodic Black Metal | Black Metal
*Country: Greece (IMG:http://metalarea.org/forum/style_images/flags/Greece.png) | Greece (IMG:http://metalarea.org/forum/style_images/flags/Greece.png)
*Format: mp3@CBR320kbps
*Size: 52MB

Tracklist:
Funeral Storm:
1. Martyr of the Lake 05:41
2. The Necromancer 05:41
Celestial Rite:
3. Into the Gorge 05:33
4. Rites of the Sea God 03:34
******************************
Total playing time: 20:29

Technical info
(IMG:http://metalarea.org/images/spectrogram/2018_Feb/620255c720584576957c55ea3a3cbc67.png)
Input File: 01 Martyr of the Lake.mp3
Channels : 2
Sample Rate : 44100
Precision : 16-bit
Duration : 00:05:41.27 = 15050095 samples = 25595.4 CDDA sectors
File Size : 15.2M
Bit Rate : 357k
Sample Encoding: MPEG audio (layer I, II or III)
Comments :
Title=Martyr of the Lake
Artist=Funeral Storm
Album=Funeral Rite
Tracknumber=1
Year=2017



Register


Go to the top of the page
  Insert nick Quick quote
+Quote Post
 
Start new topic
Replies (1 - 1)
post Feb 27 2018, 17:05:05
Post #2

Маньяк
**********
Group: Металариец
Posts: 1,016
Releases: 374
On Forums: 8 years 7 months
Thanks: 8465 time(s)
Eritrea




Thanks:
(1) zargonath,
Go to the top of the page
  Insert nick Quick quote
+Quote Post

Reply to this topicStart new topic
1 User(s) are reading this topic (1 Guests and 0 Anonymous Users)
0 Members:

 



- Lo-Fi Version Support form
Copyrights and abuse reports form
Time is now: 18th July 2019 - 20:14:38