Welcome Guest ( Log In | Register )

> Blutvial - Brythonic [ep] (2013), Black Metal
post Mar 5 2018, 00:20:49
Post #1

Правь статус, ####!111
**************
Group: Металариец
Posts: 3,298
Releases: 643
From: Brazil
On Forums: 6 years 7 months
Thanks: 25573 time(s)
Brazil


(IMG:https://metalarea.org/images/audiocovers/2018_Mar/acov_tid302855_thumb.jpg)

*Artist: Blutvial
*Album: Brythonic [ep]
*Year: 2013
*Genre: Black Metal
*Country: United Kingdom (IMG:https://metalarea.org/forum/style_images/flags/United%20Kingdom.png)
*Format: mp3@CBR320kbps
*Size: 30MB

Tracklist:
1. Face Down Among the Fescue 03:04
2. The Cold Chill of Creeping Fog 03:02
3. Succumb to the Inevitable Decay 02:32
4. Trapped in the Dark of the Woods 04:09
******************************
Total playing time: 12:47

(IMG:https://metalarea.org/images/youtube.png)

Extended info
Live rehearsal recorded at Orgone Studios ninth of February two thousand and thirteen a.y.p.s.

Tape limited to 100 copies.


Technical info
(IMG:https://metalarea.org/images/spectrogram/2018_Mar/5737458d90e71c5cba99ffc79af5a36e.png)
Input File: 02 - blutvial - the cold chill of creeping fog.mp3
Channels : 2
Sample Rate : 44100
Precision : 16-bit
Duration : 00:03:01.91 = 8022231 samples = 13643.2 CDDA sectors
File Size : 7.30M
Bit Rate : 321k
Sample Encoding: MPEG audio (layer I, II or III)
Comments :
Title=The Cold Chill of Creeping Fog
Artist=Blutvial
Album=Brythonic
Tracknumber=02
Year=2013
Genre=Black Metal



Register


Go to the top of the page
  Insert nick Quick quote
+Quote Post
 
Start new topic
Replies (1 - 1)
post Apr 17 2018, 22:36:14
Post #2

Правь статус, ####!111
**************
Group: Металариец
Posts: 3,298
Releases: 643
From: Brazil
On Forums: 6 years 7 months
Thanks: 25573 time(s)
Brazil


Register


Go to the top of the page
  Insert nick Quick quote
+Quote Post

Reply to this topicStart new topic
1 User(s) are reading this topic (1 Guests and 0 Anonymous Users)
0 Members:

 



- Lo-Fi Version Support form
Copyrights and abuse reports form
Time is now: 23rd September 2018 - 05:46:13