Welcome Guest ( Log In | Register )

> Horn - Retrograd [ep] (2018), Pagan Black Metal (D)
post Mar 6 2018, 18:17:41
Post #1

Аннигилятор пивА
Group Icon
Group: V.I.P
Posts: 50,242
Releases: 15585
From: Koenigsberg - TILZIT
On Forums: 12 years 5 months
Thanks: 338765 time(s)
Russian Federation


(IMG:https://metalarea.org/images/audiocovers/2018_Mar/acov_tid302923_thumb.jpg)

*Artist: Horn
*Album: Retrograd [ep]
*Year: 2018
*Genre: Pagan Black Metal
*Country: Germany (IMG:https://metalarea.org/forum/style_images/flags/Germany.png)
*Format: mp3@CBR320kbps
*Size: 61MB

Tracklist:
1. Retrograd – Einleitung 02:04
2. Retrograd 06:01
3. Bocksfuß – Einleitung 01:52
4. Bocksfuß 05:01
5. Garant 04:59
6. De Einder 06:07
******************************
Total playing time: 26:04




Extended info


Technical info
(IMG:https://metalarea.org/images/spectrogram/2018_Mar/1ce9609b2ab31332032ecbcceb28a55f.png)
Input File: 2.Retrograd.mp3
Channels : 2
Sample Rate : 44100
Precision : 16-bit
Duration : 00:06:01.21 = 15929537 samples = 27091 CDDA sectors
File Size : 14.9M
Bit Rate : 330k
Sample Encoding: MPEG audio (layer I, II or III)
Comments :
Title=Retrograd
Artist=Horn
Album=Retrograd
Tracknumber=2
Year=2018
Genre=Black Metal



Register


Go to the top of the page
  Insert nick Quick quote
+Quote Post
 
Start new topic
Replies (1 - 5)
post Mar 6 2018, 21:27:27
Post #2

Аннигилятор пивА
Group Icon
Group: V.I.P
Posts: 50,242
Releases: 15585
From: Koenigsberg - TILZIT
On Forums: 12 years 5 months
Thanks: 338765 time(s)
Russian Federation


mirror
Register


Go to the top of the page
  Insert nick Quick quote
+Quote Post
post Mar 7 2018, 12:55:30
Post #3

Detective Godzilla
Group Icon
Group: Moderation team
Posts: 2,637
Releases: 190
On Forums: 7 years 9 months
Thanks: 5783 time(s)
Russian Federation


А потом мне опять скажут, что домыслы про промо — это лишь мои домыслы (IMG:style_emoticons/default/headcrab.png)
Go to the top of the page
  Insert nick Quick quote
+Quote Post
post Mar 7 2018, 19:33:48
Post #4

for me your flesh
*******
Group: Металариец
Posts: 729
Releases: 0
On Forums: 1 year 3 months
Thanks: 541 time(s)
Unknown


Хорошая ипишка, ретроградства не замечено (IMG:style_emoticons/default/hmm.gif) , всё современно.
Ощущение будто это песни не вошедшие на альбом.
BocksfuЯ, Garant - сочные гимны (IMG:style_emoticons/default/20.gif)
Go to the top of the page
  Insert nick Quick quote
+Quote Post
post Mar 12 2018, 13:10:50
Post #5

Group: Дух
Posts: 2
Releases: 0
On Forums: 9 years 9 months
Thanks: 1 time(s)
Germany


can anyone upload the flac version?
Go to the top of the page
  Insert nick Quick quote
+Quote Post
post Aug 9 2018, 19:19:55
Post #6

ретроград
**************
Group: Металариец
Posts: 4,594
Releases: 176
On Forums: 11 years 4 months
Thanks: 6664 time(s)
Vatican City


О! Прям для меня альбом!))


Thanks:
Go to the top of the page
  Insert nick Quick quote
+Quote Post

Reply to this topicStart new topic
2 User(s) are reading this topic (2 Guests and 0 Anonymous Users)
0 Members:

 



- Lo-Fi Version Support form
Copyrights and abuse reports form
Time is now: 14th November 2018 - 02:06:08