Welcome Guest ( Log In | Register )

> Conjure - Speed In Hell [live] (2016), Old School Thrash/Speed Metal
post Mar 8 2018, 10:35:50
Post #1

Аннигилятор пивА
Group Icon
Group: V.I.P
Posts: 49,457
Releases: 15274
From: Koenigsberg - TILZIT
On Forums: 12 years 4 months
Thanks: 332962 time(s)
Russian Federation


(IMG:https://metalarea.org/images/audiocovers/2018_Mar/acov_tid302979_thumb.jpg)

*Artist: Conjure
*Album: Speed In Hell [live]
*Year: 2016
*Genre: Old School Thrash/Speed Metal
*Country: Ecuador (IMG:https://metalarea.org/forum/style_images/flags/Ecuador.png)
*Format: mp3@CBR320kbps
*Size: 75MB

Tracklist:
1. Condenado Al Cuero Y Metal 03:04
2. Altar De La Brutalidad 04:19
3. Dimension of Chaos 03:27
4. Fuerza Diabólica 03:42
5. Feeling the Power 03:45
6. Violencia, Demencia 03:53
7. Metal Mukusha [GV Cover] 03:28
8. Conjuro 01:58
9. Posesión 03:42
******************************
Total playing time: 31:18




Extended info
Otreum - Drums (2013), Guitars, Vocals (2013-present) See also: Alcoholic Rites, Angel Negro
Insane Blast Beat - Drums (2013-present) See also: Alcoholic Rites, Angel Negro, ex-Extreme Attack
The Phantom - Guitars (rhythm) (2013-present) See also: Angel Negro, Lady Killer
Hellion Drunken Vocals (2013-present) See also: ex-Trial by Fire
Riffer - Wind instruments (2013-present)
Death Fingers - Bass Guitar (2016-present)


Technical info
(IMG:https://metalarea.org/images/spectrogram/2018_Mar/d38a1e8a19a84ec9c632dfc95b1a4393.png)
Input File: Conjure - Speed In Hell - 02 Altar De La Brutalidad.mp3
Channels : 2
Sample Rate : 44100
Precision : 16-bit
Duration : 00:04:19.68 = 11451932 samples = 19476.1 CDDA sectors
File Size : 10.5M
Bit Rate : 324k
Sample Encoding: MPEG audio (layer I, II or III)
Comments :
Title=Altar De La Brutalidad
Artist=Conjure
Album=Speed In Hell
Tracknumber=2
Year=2018



Register


Go to the top of the page
  Insert nick Quick quote
+Quote Post
 
Start new topic
Replies (1 - 2)
post Aug 5 2018, 09:59:11
Post #2

Пять Литров
*****
Group: Металариец
Posts: 473
Releases: 0
On Forums: 6 years 5 months
Thanks: 34 time(s)
Belarus


Перезалейте,пожалуйста
Go to the top of the page
  Insert nick Quick quote
+Quote Post
post Aug 5 2018, 10:41:36
Post #3

Маньяк
**********
Group: Металариец
Posts: 1,102
Releases: 23
On Forums: 11 months 2 weeks
Thanks: 2199 time(s)
Unknown


FREE DOWNLOAD!!! -->
Go to the top of the page
  Insert nick Quick quote
+Quote Post

Reply to this topicStart new topic
1 User(s) are reading this topic (1 Guests and 0 Anonymous Users)
0 Members:

 



- Lo-Fi Version Support form
Copyrights and abuse reports form
Time is now: 18th October 2018 - 17:03:38