Welcome Guest ( Log In | Register )

> Conjure - Speed In Hell [live] (2016), Old School Thrash/Speed Metal
post Mar 8 2018, 10:35:50
Post #1

Аннигилятор пивА
Group Icon
Group: V.I.P
Posts: 46,692
Releases: 14016
From: Koenigsberg - TILZIT
On Forums: 11 years 11 months
Thanks: 310873 time(s)
Russian Federation


(IMG:https://metalarea.org/images/audiocovers/2018_Mar/acov_tid302979_thumb.jpg)

*Artist: Conjure
*Album: Speed In Hell [live]
*Year: 2016
*Genre: Old School Thrash/Speed Metal
*Country: Ecuador (IMG:https://metalarea.org/forum/style_images/flags/Ecuador.png)
*Format: mp3@CBR320kbps
*Size: 75MB

Tracklist:
1. Condenado Al Cuero Y Metal 03:04
2. Altar De La Brutalidad 04:19
3. Dimension of Chaos 03:27
4. Fuerza Diabólica 03:42
5. Feeling the Power 03:45
6. Violencia, Demencia 03:53
7. Metal Mukusha [GV Cover] 03:28
8. Conjuro 01:58
9. Posesión 03:42
******************************
Total playing time: 31:18




Extended info
Otreum - Drums (2013), Guitars, Vocals (2013-present) See also: Alcoholic Rites, Angel Negro
Insane Blast Beat - Drums (2013-present) See also: Alcoholic Rites, Angel Negro, ex-Extreme Attack
The Phantom - Guitars (rhythm) (2013-present) See also: Angel Negro, Lady Killer
Hellion Drunken Vocals (2013-present) See also: ex-Trial by Fire
Riffer - Wind instruments (2013-present)
Death Fingers - Bass Guitar (2016-present)


Technical info
(IMG:https://metalarea.org/images/spectrogram/2018_Mar/d38a1e8a19a84ec9c632dfc95b1a4393.png)
Input File: Conjure - Speed In Hell - 02 Altar De La Brutalidad.mp3
Channels : 2
Sample Rate : 44100
Precision : 16-bit
Duration : 00:04:19.68 = 11451932 samples = 19476.1 CDDA sectors
File Size : 10.5M
Bit Rate : 324k
Sample Encoding: MPEG audio (layer I, II or III)
Comments :
Title=Altar De La Brutalidad
Artist=Conjure
Album=Speed In Hell
Tracknumber=2
Year=2018



Register


Вернуться к началу страницы
  Insert nick Quick quote
+Цитировать сообщение
 
Создать новую тему
Replies (1 - 1)
post May 16 2018, 21:16:05
Post #2

Пять Литров
*****
Group: Металариец
Posts: 445
Releases: 0
On Forums: 6 years 2 weeks
Thanks: 33 time(s)
Belarus


Перезалейте,пожалуйста
Вернуться к началу страницы
  Insert nick Quick quote
+Цитировать сообщение

ОтветитьСоздать новую тему
2 User(s) are reading this topic (2 Guests and 0 Anonymous Users)
0 Members:

 



- Lo-Fi Version Support form
Copyrights and abuse reports form
Time is now: 24th May 2018 - 12:27:52