Welcome Guest ( Log In | Register )

> Myra - FCK VLK (2018), Thrash Metal/Hardcore
post Mar 8 2018, 14:46:43
Post #1

Правь статус, ####!111
**************
Group: Металариец
Posts: 13,639
Releases: 9557
From: Г.Харьков
On Forums: 6 years 2 months
Thanks: 156810 time(s)
Unknown


(IMG:https://metalarea.org/images/audiocovers/2018_Mar/acov_tid303003_thumb.jpg)

*Artist: Myra
*Album: FCK VLK
*Year: 2018
*Genre: Thrash Metal/Hardcore
*Country: Germany (IMG:https://metalarea.org/forum/style_images/flags/Germany.png)
*Format: mp3@CBR320kbps
*Size: 81MB

Tracklist:
01. FCK VLK
02. Ratcatchers
03. Keepers Code
04. Together
05. Pile of Trash
06. Walls
07. Prove Me Wrong
08. Possessions
09. Broken Windows
10. Overcome
******************************
Total playing time: 38:40



Extended info



Technical info
(IMG:https://metalarea.org/images/spectrogram/2018_Mar/c0d505d9c5825d012df6db76abf54f28.png)
Input File: 2 Ratcatchers.mp3
Channels : 2
Sample Rate : 44100
Precision : 16-bit
Duration : 00:03:59.20 = 10548808 samples = 17940.1 CDDA sectors
File Size : 9.59M
Bit Rate : 321k
Sample Encoding: MPEG audio (layer I, II or III)
Comments :
Title=Ratcatchers
Artist=Myra
Album=FCK VLK
Tracknumber=2/10
Year=2018
Genre=9
Discnumber=1/1



Register


Go to the top of the page
  Insert nick Quick quote
+Quote Post
 
Start new topic
Replies (1 - 2)
post Mar 14 2018, 09:50:08
Post #2

Ъ
**************
Group: Металариец
Posts: 9,090
Releases: 9
On Forums: 9 years 6 months
Thanks: 1726 time(s)
Sweden


Альбом 2010 у них неплохой был, этот - на раз послушать.
Go to the top of the page
  Insert nick Quick quote
+Quote Post
post Mar 20 2018, 07:22:00
Post #3

South Of Heaven /адепт ВУДУ
**************
Group: Металариец
Posts: 12,595
Releases: 7
From: Санкт-Петербург
On Forums: 8 years 3 months
Thanks: 4578 time(s)
Russian Federation


Первые два альбома можно послушать, далее уже для фанатов, если таковые имеются в наличии)
Go to the top of the page
  Insert nick Quick quote
+Quote Post

Reply to this topicStart new topic
2 User(s) are reading this topic (2 Guests and 0 Anonymous Users)
0 Members:

 



- Lo-Fi Version Support form
Copyrights and abuse reports form
Time is now: 17th July 2018 - 07:08:43