Welcome Guest ( Log In | Register )

> И неформату есть предел.

Рэп/хип-хоп/шансон/поп удаляются. Для них есть свои порталы.

> Dirty Deville - Come All Lunatics (2018), Psychedelic/Stoner Rock
post Mar 9 2018, 07:31:08
Post #1

Groovy
****
Group: Металариец
Posts: 353
Releases: 53
From: Владимирская обл.
On Forums: 11 years 7 months
Thanks: 864 time(s)
Russian Federation


(IMG:http://metalarea.org/images/audiocovers/2018_Mar/acov_tid303024_thumb.jpg)

*Artist: Dirty Deville
*Album: Come All Lunatics
*Year: 2018
*Genre: Psychedelic/Stoner Rock
*Country: United States (IMG:http://metalarea.org/forum/style_images/flags/United%20States.png)
*Format: mp3@CBR320kbps
*Size: 117MB

Tracklist:
01. Such A Fool 06:29
02. Come All Lunatics 04:05
03. Through The Walls 04:39
04. Anything 05:06
05. Familiar 04:33
06. I'm Done 03:39
07. Compression Waves 05:02
08. Death Dream 04:33
09. Outliers 05:09
10. Odyssey 07:22
******************************
Total playing time: 50:37

Extended info


Technical info
(IMG:http://metalarea.org/images/spectrogram/2018_Mar/fa0e0ce03e8473a4dbb083e3689f71fe.png)
Input File: 02. Come All Lunatics.mp3
Channels : 2
Sample Rate : 44100
Precision : 16-bit
Duration : 00:04:05.60 = 10831092 samples = 18420.2 CDDA sectors
File Size : 9.92M
Bit Rate : 323k
Sample Encoding: MPEG audio (layer I, II or III)
Comments :
Title=Come All Lunatics
Artist=Dirty Deville
Album=Come All Lunatics
Tracknumber=2
Year=2018
Genre=Psychedelic Rock



Register


Thanks:
Go to the top of the page
  Insert nick Quick quote
+Quote Post
 
Start new topic
Replies (1 - 1)
post Mar 13 2018, 15:20:00
Post #2

Ничего не знаю. Ничего.
***********
Group: Металариец
Posts: 1,506
Releases: 47
From: вержение
On Forums: 9 years 9 months
Thanks: 1651 time(s)
Russian Federation


Go to the top of the page
  Insert nick Quick quote
+Quote Post

Reply to this topicStart new topic
2 User(s) are reading this topic (2 Guests and 0 Anonymous Users)
0 Members:

 



- Lo-Fi Version Support form
Copyrights and abuse reports form
Time is now: 23rd July 2018 - 01:01:23