Welcome Guest ( Log In | Register )

> Правила / Rules

Тут только для чтения лежат низкобитрейтные (<192kbps) релизы, для которых есть аналоги в высокобитрейтных форумах.

Here goes (and stand in read only mode) low bitrate releases (<192kbps) which were already replaced by high bitrate releases in corresponding forums.

Причина закрытия (Borderline1991 11-03-2018): Nigrum Mortem - To Embrace The Black Forest [demo] (2018)
 
Closed TopicStart new topic
> Nigrum Mortem - To Embrace The Black Forest [demo] (2018), Black Metal
post Mar 11 2018, 13:32:14
Post #1

Семь Литров
*******
Group: Металариец
Posts: 782
Releases: 164
On Forums: 7 years 9 months
Thanks: 1969 time(s)
Albania


(IMG:https://metalarea.org/images/audiocovers/2018_Mar/acov_tid303133_thumb.jpg)

*Artist: Nigrum Mortem
*Album: To Embrace The Black Forest [demo]
*Year: 2018
*Genre: Black Metal
*Country: United States (IMG:https://metalarea.org/forum/style_images/flags/United%20States.png)
*Format: mp3@CBR128kbps (IMG:https://metalarea.org/images/bit_low.gif)
*Size: 13MB

Tracklist:
1.Call to War 05:38
2.Unleashing the Forces of Chaos 04:20
3.To Embrace the Black Forest 03:53
******************************
Total playing time: 13:51



Technical info
(IMG:https://metalarea.org/images/spectrogram/2018_Mar/96b315c7b9ff89ad37ad5503eb7544df.png)
Input File: 2 - Unleashing the Forces of Chaos.mp3
Channels : 2
Sample Rate : 44100
Precision : 16-bit
Duration : 00:04:20.77 = 11500177 samples = 19558.1 CDDA sectors
File Size : 4.17M
Bit Rate : 128k
Sample Encoding: MPEG audio (layer I, II or III)



Register
Go to the top of the page
  Insert nick Quick quote
+Quote Post

Причина закрытия (Borderline1991 11-03-2018): Nigrum Mortem - To Embrace The Black Forest [demo] (2018)
Closed TopicStart new topic
2 User(s) are reading this topic (2 Guests and 0 Anonymous Users)
0 Members:

 



- Lo-Fi Version Support form
Copyrights and abuse reports form
Time is now: 22nd July 2018 - 23:03:44