Welcome Guest ( Log In | Register )

> Et Moriemur - Epigrammata (2018), Atmospheric Death/Doom Metal (D4)
post Mar 11 2018, 13:52:14
Post #1
BAN
Banned till
Aug 21 2022, 13:53:24



(IMG:https://metalarea.org/images/audiocovers/2018_Mar/acov_tid303135_thumb.jpg)

*Artist: Et Moriemur
*Album: Epigrammata
*Year: 2018
*Genre: Atmospheric Death/Doom Metal
*Country: Czech Republic (IMG:https://metalarea.org/forum/style_images/flags/Czech%20Republic.png)
*Format: mp3@CBR320kbps
*Size: 121MB

Tracklist:
01. Introitus 01:41
02. Requiem Aeternam 05:15
03. Agnus Dei 05:15
04. Dies Irae 04:13
05. Offertorium 05:44
06. Communio 06:15
07. Libera Me 05:19
08. Absolve Domine 02:47
09. Sanctus 06:05
10. In Paradisum 10:42
******************************
Total playing time: 53:16




Extended info
Czech doom supergroup with members of legendary bands like Dissolving of Prodigy, Self-Hatred and Silent Stream of Godless Elegy.
For fans of - Towards Atlantis Lights, Illimitable Dolor, Batushka, (early) Opera IX, Thergothon, Skepticism, Disembowelment, Bell Witch, Spectral Voice...

Zdeněk Nevělík – Vocals, Piano
Aleš Vilingr – Guitar (Self-Hatred)
Pavel Janouškovec – Guitar (Self-Hatred)
Karel Kovářík – Bass
Michal "Datel" Rak – Drums (Self-Hatred, Radvanoch, ex-Cruadalach, ex-Silent Stream of Godless Elegy, ex-Dissolving of Prodigy, ex-Aqva Silentia, ex-Ashore the Decadence, ex-Creed of Life, ex-Gothic Teufel, ex-Slosování Stupenek, ex-Tinitus)

Guest contributions -
Vocals (on Introitus) - Kostas Panagiotou (Towards Atlantis Lights, Pantheist)
Vocals (on Agnus Dei) - Nikos Vlachakis (Shattered Hope)
Recitation (on Agnus Dei) - Labrini Karousou and Vangelis Mertzanis

Additional musicians -
Choir – Jaroslav Klvaňa, Karel Russ, Lukáš Pavlovský
Cello – Andrea Michálková
Violin – Zuzana Králová
Trombone – Jindřich Bešťák
Acoustic guitar – Honza Kapák (Master's Hammer, After Rain, Dark Angels, Impuritum, Murder, Radiolokátor, ex-Avenger, ex-Black Rain, ex-Bane, ex-Krieg, ex-Maniac Butcher, ex-Nargaroth, ex-Panychida, ex-The Stone, ex-Blasphemic Lust, ex-Dark Storm, ex-Moriorr, ex-Judas Iscariot)


Technical info
(IMG:https://metalarea.org/images/spectrogram/2018_Mar/3eda637f098956f9584d654a3d29967c.png)
Input File: 04 Dies Irae.mp3
Channels : 2
Sample Rate : 44100
Precision : 16-bit
Duration : 00:04:12.97 = 11155977 samples = 18972.8 CDDA sectors
File Size : 10.1M
Bit Rate : 320k
Sample Encoding: MPEG audio (layer I, II or III)
Comments :
Title=Dies Irae
Artist=Et Moriemur
Album=Epigrammata
Tracknumber=4
Year=2018
Genre=Death Metal



Register


Go to the top of the page
  Insert nick Quick quote
+Quote Post
 
Start new topic
Replies (1 - 8)
post Mar 11 2018, 14:49:33
Post #2
BAN
Banned till
Aug 21 2022, 13:53:24



mirror
Register



Go to the top of the page
  Insert nick Quick quote
+Quote Post
post Mar 11 2018, 20:44:53
Post #3
BAN
Banned till
Aug 21 2022, 13:53:24



ассоциативно как если бы септик флэш заиграл дум (IMG:style_emoticons/default/crazy.gif) красиво на
Go to the top of the page
  Insert nick Quick quote
+Quote Post
post Mar 11 2018, 20:51:12
Post #4

赑屃
***
Group: Завсегдатай
Posts: 246
Releases: 5
From: Луганск
On Forums: 5 years 4 months
Thanks: 130 time(s)
Russian Federation


Чехи в своём репертуаре, ничего нового. Собрались старые, проверенные временем перцы и замутили очередную порцию национальной чешской забавы - рок-оперу. На этот раз - в стиле дум. Главные действующие лица - орган и монахи. Удивительно ещё, что все идеи уложились в жалкие 53 минуты.. Если руки дойдут, то, возможно, переслушаю ещё пару раз..

Хорошо забытое старое, в своё время обслушивался неоднократно - Forgotten Silence - Senyaan (1998), Progressive/Doom Metal Forgotten Silence - Senyaan (1998)


Thanks:
(1) Evilded,
Go to the top of the page
  Insert nick Quick quote
+Quote Post
post Mar 17 2018, 20:12:37
Post #5

Герберт Уэст
**************
Group: Металариец
Posts: 2,459
Releases: 80
From: Болота мокшанские/Донбасс
On Forums: 13 years 2 months
Thanks: 5510 time(s)
Russian Federation


Сказочная музыка (IMG:style_emoticons/default/headcrab.png) (IMG:style_emoticons/default/headcrab.png) (IMG:style_emoticons/default/headcrab.png) , отчего-то подумал поначалу, что это греки... (IMG:style_emoticons/default/crazy.gif)
Go to the top of the page
  Insert nick Quick quote
+Quote Post
post Mar 19 2018, 18:11:50
Post #6

Necromancer
Group Icon
Group: Curation team
Posts: 11,046
Releases: 271
From: Зеленоград
On Forums: 15 years 10 months
Thanks: 8939 time(s)
Russian Federation


Великолепно. (IMG:style_emoticons/default/20.gif)
Go to the top of the page
  Insert nick Quick quote
+Quote Post
post Mar 27 2018, 16:43:15
Post #7

Пол литра абсента
*******
Group: Металариец
Posts: 765
Releases: 6
From: Москва
On Forums: 13 years 5 months
Thanks: 923 time(s)
Russian Federation


ЦИТАТА(Fess @ Mar 19 2018, 20:11:50) *
Великолепно. (IMG:style_emoticons/default/20.gif)

Согласен. Чехи действительно очень порадовали (IMG:style_emoticons/default/headcrab.png)
Go to the top of the page
  Insert nick Quick quote
+Quote Post
post Mar 2 2020, 14:24:00
Post #8

обратное изображение в ядовитом глазу
**************
Group: Металариец
Posts: 7,360
Releases: 11
On Forums: 12 years 9 months
Thanks: 3533 time(s)
Unknown


Не зря я 2 года не удалял это произведение из закладок... Довольно круто.
Go to the top of the page
  Insert nick Quick quote
+Quote Post
post May 1 2022, 09:50:56
Post #9

####!111
**************
Group: Металариец
Posts: 4,659
Releases: 141
From: The Mountain Of DOOM
On Forums: 14 years 10 months
Thanks: 6721 time(s)
Russian Federation


ЦИТАТА(aesteticvice @ 11th March 2018 - 23:44:53) *
ассоциативно как если бы септик флэш заиграл дум

по атмосфере есть такое

"Libera Me" (IMG:style_emoticons/default/20.gif)
Go to the top of the page
  Insert nick Quick quote
+Quote Post

Reply to this topicStart new topic
1 User(s) are reading this topic (1 Guests and 0 Anonymous Users)
0 Members:

 



- Lo-Fi Version Support form
Copyrights and abuse reports form
Time is now: 14th August 2022 - 01:22:45