Welcome Guest ( Log In | Register )

> Rivers Of Nihil - Where Owls Know My Name (2018), Technical/Progressive Death Metal/Fusion
post Mar 11 2018, 18:59:57
Post #1

Аннигилятор пивА
Group Icon
Group: V.I.P
Posts: 52,354
Releases: 16557
From: Koenigsberg - TILZIT
On Forums: 12 years 10 months
Thanks: 360331 time(s)
Russian Federation


(IMG:https://metalarea.org/images/audiocovers/2018_Mar/acov_tid303152_thumb.jpg)

*Artist: Rivers Of Nihil
*Album: Where Owls Know My Name
*Year: 2018
*Genre: Technical/Progressive Death Metal/Fusion
*Country: United States (IMG:https://metalarea.org/forum/style_images/flags/United%20States.png)
*Format: mp3@CBR320kbps
*Size: 131MB

Tracklist:
01. Cancer / Moonspeak 01:44
02. The Silent Life 06:34
03. A Home 05:19
04. Old Nothing 04:44
05. Subtle Change (Including the Forest of Transition and Dissatisfaction Dance) 08:34
06. Terrestria III: Wither 03:49
07. Hollow 05:13
08. Death Is Real 06:09
09. Where Owls Know My Name 06:42
10. Capricorn / Agoratopia 07:50
******************************
Total playing time: 56:38




Extended info
Jake Dieffenbach - Vocals
Brody Uttley - Guitar
Jon Topore - Guitar
Adam Biggs - Bass/Vocals
Jared Klein - Drums
Guest:
Zach Strouse - Saxophone
Andy Thomas - Vocals (track 9)



Technical info
(IMG:https://metalarea.org/images/spectrogram/2018_Mar/9d896dd06a1161477b446a8ecaf562eb.png)
Input File: 04 Old Nothing.mp3
Channels : 2
Sample Rate : 44100
Precision : 16-bit
Duration : 00:04:44.37 = 12540805 samples = 21327.9 CDDA sectors
File Size : 11.4M
Bit Rate : 322k
Sample Encoding: MPEG audio (layer I, II or III)
Comments :
Title=Old Nothing
Artist=Rivers of Nihil
Album=Where Owls Know My Name
Tracknumber=4/10
Year=2018
Genre=9
Discnumber=1/1



Register


This post has been edited by aesteticvice: Sep 12 2018, 14:12:14


Go to the top of the page
  Insert nick Quick quote
+Quote Post
3 Pages V  < 1 2 3  
Start new topic
Replies (60 - 60)
post Apr 7 2019, 17:47:48
Post #61

И Ван Дамм По Делам Вашим!
**************
Group: Металариец
Posts: 16,871
Releases: 26
On Forums: 10 years 9 months
Thanks: 8941 time(s)
Honduras


Register
Go to the top of the page
  Insert nick Quick quote
+Quote Post

3 Pages V  < 1 2 3
Reply to this topicStart new topic
2 User(s) are reading this topic (2 Guests and 0 Anonymous Users)
0 Members:

 



- Lo-Fi Version Support form
Copyrights and abuse reports form
Time is now: 22nd April 2019 - 15:37:04