Welcome Guest ( Log In | Register )

 
Reply to this topicStart new topic
> Death Worm - Death Worm (2009), Death/Thrash Metal/Grindcore
post Mar 12 2018, 10:25:41
Post #1

Подвал
**************
Group: Металариец
Posts: 12,767
Releases: 7163
From: Far East (Khabarovsk)
On Forums: 9 years 10 months
Thanks: 67002 time(s)
Russian Federation


(IMG:https://metalarea.org/images/audiocovers/2018_Mar/acov_tid303170_thumb.jpg)

*Artist: Death Worm
*Album: Death Worm
*Year: 2009
*Genre: Death/Thrash Metal/Grindcore
*Country: Japan (IMG:https://metalarea.org/forum/style_images/flags/Japan.png)
*Format: mp3@CBR320kbps
*Size: 77MB

Tracklist:
1. Hate The Negative 01:12
2. The Tomb Of Everlasting 03:34
3. Inward Uprising 02:16
4. Death Metal For The Children 01:56
5. Forsaking 04:13
6. Trace Of Catastrophe 02:39
7. Misgovernment 03:45
8. Humankind 03:34
9. Sudden Death 03:28
10. Abnormal Murder Pictures 03:24
11. The Fucking Retaliation 03:51
12. The Accidental Suicide 04:36
******************************
Total playing time: 38:28


(IMG:https://metalarea.org/images/myspace.png)

Technical info
(IMG:https://metalarea.org/images/spectrogram/2018_Mar/a03e7ac05664f6a1ce3e53f2652043b5.png)
Input File: 01-Hate the Negative.mp3
Channels : 2
Sample Rate : 44100
Precision : 16-bit
Duration : 00:01:05.29 = 2879421 samples = 4896.97 CDDA sectors
File Size : 2.61M
Bit Rate : 320k
Sample Encoding: MPEG audio (layer I, II or III)
Comments :
Title=Hate the Negative
Artist=Death Worm
Album=Death Worm
Tracknumber=01
Year=2009
Genre=Death Metal



Register


Go to the top of the page
  Insert nick Quick quote
+Quote Post

Reply to this topicStart new topic
1 User(s) are reading this topic (1 Guests and 0 Anonymous Users)
0 Members:

 



- Lo-Fi Version Support form
Copyrights and abuse reports form
Time is now: 13th December 2018 - 21:04:09