Welcome Guest ( Log In | Register )

> [STÖMB] - Duality [ep] (2017), Progressive Metal
post Mar 12 2018, 10:32:40
Post #1

sequensolog
**********
Group: Металариец
Posts: 1,275
Releases: 14
On Forums: 5 months 4 weeks
Thanks: 478 time(s)
Russian Federation


(IMG:https://metalarea.org/images/audiocovers/2018_Mar/acov_tid303171_thumb.jpg)

*Artist: [STÖMB]
*Album: Duality [ep]
*Year: 2017
*Genre: Progressive Metal
*Country: France (IMG:https://metalarea.org/forum/style_images/flags/France.png)
*Format: mp3@CBR320kbps
*Size: 66MB

Tracklist:
1.The Dark Admirer 07:01
2.A Voice In My Head 01:23
3.We, The Duality 04:27
4.The Red Way 06:34
5.The Other Me 04:42
6.Contemplation Of The Cold 04:46
******************************
Total playing time: 28:53


(IMG:https://metalarea.org/images/youtube.png)

Technical info
(IMG:https://metalarea.org/images/spectrogram/2018_Mar/7444e6637025874d86745bf94a2bc549.png)
Input File: 02 - A Voice in My Head.mp3
Channels : 2
Sample Rate : 44100
Precision : 16-bit
Duration : 00:01:24.05 = 3706429 samples = 6303.45 CDDA sectors
File Size : 3.36M
Bit Rate : 320k
Sample Encoding: MPEG audio (layer I, II or III)
Comments :
Title=A Voice in My Head
Artist=[STГ–MB]
Album=Duality
Tracknumber=2/6
Year=2017
Discnumber=1/1



Register


Go to the top of the page
  Insert nick Quick quote
+Quote Post
 
Start new topic
Replies (1 - 5)
post Mar 12 2018, 20:03:22
Post #2

Три Литра
***
Group: Завсегдатай
Posts: 289
Releases: 0
From: Сибирь
On Forums: 7 years 4 months
Thanks: 76 time(s)
Russian Federation


Спектры не 320 выдают
Go to the top of the page
  Insert nick Quick quote
+Quote Post
post Mar 12 2018, 20:46:14
Post #3

21st Century Schizoid Man
**************
Group: Металариец
Posts: 5,159
Releases: 67
From: Moscow
On Forums: 10 years 2 months
Thanks: 4074 time(s)
Russian Federation


Да ну и хрен с ними. (IMG:style_emoticons/default/12.gif)
Go to the top of the page
  Insert nick Quick quote
+Quote Post
post Mar 13 2018, 08:53:21
Post #4

sequensolog
**********
Group: Металариец
Posts: 1,275
Releases: 14
On Forums: 5 months 4 weeks
Thanks: 478 time(s)
Russian Federation


Конвертировал из оригинального FLAC
спектрограмма того же трека
(IMG:https://metalarea.org/forum/uploads/1382098982/gallery_181103_104_65281.png)

Go to the top of the page
  Insert nick Quick quote
+Quote Post
post Mar 16 2018, 06:31:08
Post #5

Три Литра
***
Group: Завсегдатай
Posts: 289
Releases: 0
From: Сибирь
On Forums: 7 years 4 months
Thanks: 76 time(s)
Russian Federation


mirotvorets,
Хм, а можешь тогда лосслессом поделиться? (IMG:style_emoticons/default/smile1.gif)
Go to the top of the page
  Insert nick Quick quote
+Quote Post
post Mar 17 2018, 09:19:43
Post #6

sequensolog
**********
Group: Металариец
Posts: 1,275
Releases: 14
On Forums: 5 months 4 weeks
Thanks: 478 time(s)
Russian Federation


Register


Thanks:
(1) Ogidni,
Go to the top of the page
  Insert nick Quick quote
+Quote Post

Reply to this topicStart new topic
2 User(s) are reading this topic (2 Guests and 0 Anonymous Users)
0 Members:

 



- Lo-Fi Version Support form
Copyrights and abuse reports form
Time is now: 20th July 2018 - 17:13:37