Welcome Guest ( Log In | Register )

 
Reply to this topicStart new topic
> Sloth & Drekavac - Sloth/Drekavac [split] (2018), Noise | Raw Black Metal (D)(D5)
post Mar 12 2018, 10:36:58
Post #1

Правь статус, ####!616
**************
Group: Металариец
Posts: 4,398
Releases: 3004
From: 55°35’N 38°08’E
On Forums: 10 years 1 week
Thanks: 56200 time(s)
Unknown


(IMG:http://metalarea.org/images/audiocovers/2018_Mar/acov_tid303172_thumb.jpg)

*Artist: Sloth & Drekavac
*Album: Sloth/Drekavac [split]
*Year: 2018
*Genre: Noise | Raw Black Metal
*Country: United States (IMG:http://metalarea.org/forum/style_images/flags/United%20States.png) | United States (IMG:http://metalarea.org/forum/style_images/flags/United%20States.png)
*Format: mp3@CBR320kbps
*Size: 53MB

Tracklist:
Sloth:
1.Praying to the Ghost of Nathan Gale Every Time I'm Reminded Kid Rock Is Still Alive 08:09
Drekavac:
2.Chalice of Dirt 01:30
3.Unsilent Cauldron 00:56
4.Dragged Toward the North Wall 01:18
5.Bleeding Amidst the Black Ritual Flame 02:13
6.Night of Belial's Fog 02:12
******************************
Total playing time: 16:18

Extended info
Tape-rip


Technical info
(IMG:http://metalarea.org/images/spectrogram/2018_Mar/2bcc3dc752e09c2f87e4f2b50c4e4470.png)
Input File: 01. Praying to the Ghost of Nathan Gale Every Time I'm Reminded Kid Rock Is Still Alive.mp3
Channels : 2
Sample Rate : 44100
Precision : 16-bit
Duration : 00:08:09.87 = 21603311 samples = 36740.3 CDDA sectors
File Size : 19.7M
Bit Rate : 321k
Sample Encoding: MPEG audio (layer I, II or III)
Comments :
Title=Praying to the Ghost of Nathan Gale Every Time I'm Reminded Kid Rock Is Still Alive
Artist=Sloth
Album=Sloth / Drekavac
Tracknumber=1
Year=2018
Genre=Black Metal



Register


Go to the top of the page
  Insert nick Quick quote
+Quote Post

Reply to this topicStart new topic
2 User(s) are reading this topic (2 Guests and 0 Anonymous Users)
0 Members:

 



- Lo-Fi Version Support form
Copyrights and abuse reports form
Time is now: 17th July 2018 - 07:11:31