Welcome Guest ( Log In | Register )

> Demopolis - Consumed Into Chaos [ep] (2018), Black/Death Metal
post Mar 12 2018, 12:31:59
Post #1

Serial Uploader
Group Icon
Group: V.I.P
Posts: 32,722
Releases: 31018
From: Lithuania
On Forums: 10 years 1 week
Thanks: 355652 time(s)
Lithuania


(IMG:https://metalarea.org/images/audiocovers/2018_Mar/acov_tid303173_thumb.jpg)

*Artist: Demopolis
*Album: Consumed Into Chaos [ep]
*Year: 2018
*Genre: Black/Death Metal
*Country: United States (IMG:https://metalarea.org/forum/style_images/flags/United%20States.png)
*Format: mp3@CBR320kbps
*Size: 76MB

Tracklist:
01. Awaiting The Arrival Of Death
02. Consumed Into Chaos
03. Beyond The Valley Of Suffering
04. Corrupt Existence
05. The Wrath In His Eyes
******************************
Total playing time: 33:07



(IMG:https://metalarea.org/images/youtube.png)

Technical info
(IMG:https://metalarea.org/images/spectrogram/2018_Mar/d66a1304b24be8b4b86c194d88179af8.png)
Input File: 03. Beyond the Valley of Suffering.mp3
Channels : 2
Sample Rate : 44100
Precision : 16-bit
Duration : 00:00:00.43 = 18919 samples = 32.1752 CDDA sectors
File Size : 17.3M
Bit Rate : 323M
Sample Encoding: MPEG audio (layer I, II or III)
Comments :
Title=Beyond the Valley of Suffering
Artist=Demopolis
Album=Consumed Into Chaos
Tracknumber=3/5
Year=2018-18-20
Discnumber=1/1



Register


Go to the top of the page
  Insert nick Quick quote
+Quote Post
 
Start new topic
Replies (1 - 1)
post Mar 12 2018, 12:49:14
Post #2

Два Литра
**
Group: Завсегдатай
Posts: 138
Releases: 0
From: Россия
On Forums: 6 years 4 months
Thanks: 45 time(s)
Russian Federation


Тип релиза ЕР

Demopolis
20 января ·
CHECKOUT OUR NEW SINGLE FROM THE UPCOMING EP "CONSUMED INTO CHAOS"
Go to the top of the page
  Insert nick Quick quote
+Quote Post

Reply to this topicStart new topic
1 User(s) are reading this topic (1 Guests and 0 Anonymous Users)
0 Members:

 



- Lo-Fi Version Support form
Copyrights and abuse reports form
Time is now: 20th June 2018 - 12:30:42