Welcome Guest ( Log In | Register )

> Rakitiko - La Profecía Pagana (2018), Black/Death Metal
post Mar 12 2018, 12:43:30
Post #1

Serial Uploader
Group Icon
Group: V.I.P
Posts: 32,850
Releases: 31144
From: Lithuania
On Forums: 10 years 1 month
Thanks: 356846 time(s)
Lithuania


(IMG:https://metalarea.org/images/audiocovers/2018_Mar/acov_tid303174_thumb.png)

*Artist: Rakitiko
*Album: La Profecía Pagana
*Year: 2018
*Genre: Black/Death Metal
*Country: Argentina (IMG:https://metalarea.org/forum/style_images/flags/Argentina.png)
*Format: mp3@CBR320kbps
*Size: 71MB

Tracklist:
01. Un Millón De Muertos 03:24
02. La Nueva Condición 03:12
03. Ayudar A Un Perro 05:42
04. La Profecía 03:56
05. Tratando De Llegar 03:39
06. Veo El Círculo Caer 04:02
07. El Futuro (Parecia Ser Nuestro) 03:00
08. Por Quien Vos Siempre Estas 03:16
******************************
Total playing time: 30:11




Technical info
(IMG:https://metalarea.org/images/spectrogram/2018_Mar/f30e093110c58a41ec5aad4c4f8cf1d2.png)
Input File: 02. La Nueva Condicion.mp3
Channels : 2
Sample Rate : 44100
Precision : 16-bit
Duration : 00:03:12.91 = 8507287 samples = 14468.2 CDDA sectors
File Size : 7.94M
Bit Rate : 329k
Sample Encoding: MPEG audio (layer I, II or III)
Comments :
Title=La Nueva Condicion
Artist=Rakitiko
Album=La Profecia Pagana
Tracknumber=2/8
Year=2018
Genre=Black Metal



Register


Go to the top of the page
  Insert nick Quick quote
+Quote Post
 
Start new topic
Replies (1 - 2)
post Mar 12 2018, 13:23:58
Post #2

Три Литра
***
Group: Завсегдатай
Posts: 242
Releases: 1
On Forums: 8 years 10 months
Thanks: 72 time(s)
Unknown


рахитико? это про собаку с пузом, которая ждала доктора?
Go to the top of the page
  Insert nick Quick quote
+Quote Post
post Mar 12 2018, 16:17:31
Post #3

Group: Подсевший
Posts: 28
Releases: 0
From: Орёл
On Forums: 7 years 4 months
Thanks: 2 time(s)
Unknown


да про неё))
Go to the top of the page
  Insert nick Quick quote
+Quote Post

Reply to this topicStart new topic
2 User(s) are reading this topic (2 Guests and 0 Anonymous Users)
0 Members:

 



- Lo-Fi Version Support form
Copyrights and abuse reports form
Time is now: 17th July 2018 - 06:59:45