Welcome Guest ( Log In | Register )

> Ditch Mimes - Arise! (2018), Stoner/Doom Metal
post Mar 12 2018, 12:56:11
Post #1

Serial Uploader
Group Icon
Group: V.I.P
Posts: 32,722
Releases: 31018
From: Lithuania
On Forums: 10 years 1 week
Thanks: 355652 time(s)
Lithuania


(IMG:https://metalarea.org/images/audiocovers/2018_Mar/acov_tid303176_thumb.jpg)

*Artist: Ditch Mimes
*Album: Arise!
*Year: 2018
*Genre: Stoner/Doom Metal
*Country: United States (IMG:https://metalarea.org/forum/style_images/flags/United%20States.png)
*Format: mp3@CBR320kbps
*Size: 108MB

Tracklist:
01. Arise! 10:26
02. Weird With A Beard 03:36
03. Charnel House 06:57
04. No Sleep 04:54
05. Dwarf Rider 07:12
06. Deserts That Once Were Seas 12:45
******************************
Total playing time: 45:50




Technical info
(IMG:https://metalarea.org/images/spectrogram/2018_Mar/9dd7727a2805765fe3808b23df8ef863.png)
Input File: 02. Weird with a Beard.mp3
Channels : 2
Sample Rate : 44100
Precision : 16-bit
Duration : 00:03:36.08 = 9529216 samples = 16206.1 CDDA sectors
File Size : 9.20M
Bit Rate : 341k
Sample Encoding: MPEG audio (layer I, II or III)
Comments :
Title=Weird with a Beard
Artist=Ditch Mimes
Album=Arise!
Tracknumber=2/6
Year=2018
Genre=Metal
Discnumber=1/1



Register


Go to the top of the page
  Insert nick Quick quote
+Quote Post
 
Start new topic
Replies (1 - 2)
post Mar 12 2018, 13:16:30
Post #2

Два Литра
**
Group: Завсегдатай
Posts: 162
Releases: 0
On Forums: 4 years 3 months
Thanks: 49 time(s)
Unknown


Mirror to a different host please?
Go to the top of the page
  Insert nick Quick quote
+Quote Post
post Mar 12 2018, 13:38:14
Post #3

Шесть Литров
******
Group: Металариец
Posts: 615
Releases: 0
On Forums: 10 years 7 months
Thanks: 197 time(s)
Belarus


Go to the top of the page
  Insert nick Quick quote
+Quote Post

Reply to this topicStart new topic
1 User(s) are reading this topic (1 Guests and 0 Anonymous Users)
0 Members:

 



- Lo-Fi Version Support form
Copyrights and abuse reports form
Time is now: 20th June 2018 - 12:30:53