Welcome Guest ( Log In | Register )

> Silent Scream - My Dark Side [ep] (2017), Heavy Metal (D9)
post Mar 12 2018, 13:14:00
Post #1

Serial Uploader
Group Icon
Group: V.I.P
Posts: 32,850
Releases: 31144
From: Lithuania
On Forums: 10 years 1 month
Thanks: 356846 time(s)
Lithuania


(IMG:https://metalarea.org/images/audiocovers/2018_Mar/acov_tid303177_thumb.jpg)

*Artist: Silent Scream
*Album: My Dark Side [ep]
*Year: 2017
*Genre: Heavy Metal
*Country: Italy (IMG:https://metalarea.org/forum/style_images/flags/Italy.png)
*Format: mp3@CBR320kbps
*Size: 54MB

Tracklist:
01. Falling Star 01:59
02. Born In The Storm 04:09
03. My Dark Side 05:08
04. One More Chance 05:07
05. Anger 04:23
06. Not In My Name 04:43
******************************
Total playing time: 25:29




Extended info
Scene-rip


Technical info
(IMG:https://metalarea.org/images/spectrogram/2018_Mar/ab84a6c7982badd88074f46edf164daa.png)
Input File: 02-silent_scream-born_in_the_storm-0c280fb8.mp3
Channels : 2
Sample Rate : 44100
Precision : 16-bit
Duration : 00:04:09.99 = 11024647 samples = 18749.4 CDDA sectors
File Size : 10.0M
Bit Rate : 320k
Sample Encoding: MPEG audio (layer I, II or III)
Comments :
Title=Born in the Storm
Artist=SILENT SCREAM
Album=My Dark Side
Tracknumber=2/6
Year=2018
Genre=137



Register


Go to the top of the page
  Insert nick Quick quote
+Quote Post
 
Start new topic
Replies (1 - 1)
post Mar 13 2018, 13:20:42
Post #2

Пять Литров
*****
Group: Металариец
Posts: 467
Releases: 0
On Forums: 9 years 1 week
Thanks: 101 time(s)
Ukraine


Просто супер релиз!!побольше бы таких альбомов что не так часто встретишь сейчас!!!
Go to the top of the page
  Insert nick Quick quote
+Quote Post

Reply to this topicStart new topic
2 User(s) are reading this topic (2 Guests and 0 Anonymous Users)
0 Members:

 



- Lo-Fi Version Support form
Copyrights and abuse reports form
Time is now: 17th July 2018 - 07:11:08