Welcome Guest ( Log In | Register )

 
Reply to this topicStart new topic
> Feigdarbod - Tomb Of Death [ep] (2018), Black Metal
post Mar 12 2018, 13:24:18
Post #1

Serial Uploader
Group Icon
Group: V.I.P
Posts: 32,722
Releases: 31018
From: Lithuania
On Forums: 10 years 1 week
Thanks: 355652 time(s)
Lithuania


(IMG:https://metalarea.org/images/audiocovers/2018_Mar/acov_tid303178_thumb.jpg)

*Artist: Feigdarbod
*Album: Tomb Of Death [ep]
*Year: 2018
*Genre: Black Metal
*Country: Norway (IMG:https://metalarea.org/forum/style_images/flags/Norway.png)
*Format: mp3@CBR320kbps
*Size: 51MB

Tracklist:
01. Children Of The Light 04:02
02. Tomb Of Death 05:00
03. Black Mountain Winds 05:48
04. Crooked Serpent 05:41
05. Eternal King 03:27
******************************
Total playing time: 23:58




Extended info
Scene-rip


Technical info
(IMG:https://metalarea.org/images/spectrogram/2018_Mar/35d506557ac77f07eb5c627db89b3bbc.png)
Input File: 04-feigdarbod-crooked_serpent-e93c663c.mp3
Channels : 2
Sample Rate : 44100
Precision : 16-bit
Duration : 00:05:41.27 = 15050095 samples = 25595.4 CDDA sectors
File Size : 13.7M
Bit Rate : 320k
Sample Encoding: MPEG audio (layer I, II or III)
Comments :
Title=Crooked serpent
Artist=Feigdarbod
Album=Tomb of death
Tracknumber=4/5
Year=2018
Genre=22



Register


Go to the top of the page
  Insert nick Quick quote
+Quote Post

Reply to this topicStart new topic
1 User(s) are reading this topic (1 Guests and 0 Anonymous Users)
0 Members:

 



- Lo-Fi Version Support form
Copyrights and abuse reports form
Time is now: 20th June 2018 - 12:31:01