Welcome Guest ( Log In | Register )

 
Reply to this topicStart new topic
> Secret Anal Terrorist - Turn Off This Shit (2018), Goregrind
post Mar 12 2018, 13:38:49
Post #1

Serial Uploader
Group Icon
Group: V.I.P
Posts: 33,064
Releases: 31349
From: Lithuania
On Forums: 10 years 3 months
Thanks: 358623 time(s)
Lithuania


(IMG:https://metalarea.org/images/audiocovers/2018_Mar/acov_tid303179_thumb.jpg)

*Artist: Secret Anal Terrorist
*Album: Turn Off This Shit
*Year: 2018
*Genre: Goregrind
*Country: Russian Federation (IMG:https://metalarea.org/forum/style_images/flags/Russian%20Federation.png)
*Format: mp3@CBR320kbps
*Size: 44MB

Tracklist:
01. Hello!
02. Turn Off This Shit
03. Webcam Girl
04. Beer
05. RASG
06. Masturbation
07. Dog Lover
08. Hoodlum From Bugulma
09. Anal Ninja
10. XXX
11. Bald, Fat And Lazy
12. Where Is The Album?
13. The Cookie Game
14. Grindcore Is The Worst Genre Of Music
15. P.S.S.
16. Oh Shit, I’m Sorry
17. Gutalax
18. The Finale Review
******************************
Total playing time: 20:51


Preview 2


Extended info
Scene-rip


Technical info
(IMG:https://metalarea.org/images/spectrogram/2018_Mar/bdf1107ff946e31819f11d19f7276bcc.png)
Input File: 03-secret_anal_terrorist-webcam_girl-3f443d3e.mp3
Channels : 2
Sample Rate : 44100
Precision : 16-bit
Duration : 00:01:18.61 = 3466789 samples = 5895.9 CDDA sectors
File Size : 3.15M
Bit Rate : 320k
Sample Encoding: MPEG audio (layer I, II or III)
Comments :
Title=Webcam Girl
Artist=Secret Anal Terrorist
Album=Turn Off This Shit
Tracknumber=3/18
Year=2018
Genre=9



Register


Go to the top of the page
  Insert nick Quick quote
+Quote Post

Reply to this topicStart new topic
1 User(s) are reading this topic (1 Guests and 0 Anonymous Users)
0 Members:

 



- Lo-Fi Version Support form
Copyrights and abuse reports form
Time is now: 23rd September 2018 - 05:14:51