Welcome Guest ( Log In | Register )

> Forum rules / Правила раздела

Here go releases which can't go to New releases forums due lack of information, stolen links or incorrect data and just founded in other sites links with minimum info. Reissue of this releases through Add release form with added/corrected data, info and own links highly welcomed.

Сюда уходят релизы, не пропущенные в основные релизные форумы по причинам отсутствия, недостаточности или неверности/некорректности сопровождающей информации, содержащие ссылки, указывающие на файлы, залитые не автором темы, а так же просто найденные где-то ссылки с минимумом информации. Переоформление тем отсюда через форму Добавления релиза с перезаливкой ссылок крайне приветствуется.

 
Reply to this topicStart new topic
> Nekrogoblikon - The Skin Thief [single] (2018), Melodic Death/Folk Metal (D6)
post Mar 12 2018, 15:01:39
Post #1

Время Мары
**************
Group: Металариец
Posts: 2,902
Releases: 367
From: Харьков
On Forums: 9 years 1 month
Thanks: 7022 time(s)
Ukraine


(IMG:http://metalarea.org/images/audiocovers/2018_Mar/acov_tid303183_thumb.jpg)

*Artist: Nekrogoblikon
*Album: The Skin Thief [single]
*Year: 2018
*Genre: Melodic Death/Folk Metal
*Country: United States (IMG:http://metalarea.org/forum/style_images/flags/United%20States.png)
*Format: mp3@CBR320kbps
*Size: 7MB

Tracklist:
1. The Skin Thief
******************************
Total playing time: 3:09

Technical info
(IMG:http://metalarea.org/images/spectrogram/2018_Mar/a1948c6b13606ff078baca14300c839f.png)
Input File: 01.The Skin Thief.mp3
Channels : 2
Sample Rate : 44100
Precision : 16-bit
Duration : 00:03:12.07 = 8470419 samples = 14405.5 CDDA sectors
File Size : 7.68M
Bit Rate : 320k
Sample Encoding: MPEG audio (layer I, II or III)
Comments :
Title=The Skin Thief
Artist=Nekrogoblikon
Album=The Skin Thief (Single)
Tracknumber=01
Year=2018



Register


Go to the top of the page
  Insert nick Quick quote
+Quote Post

Reply to this topicStart new topic
2 User(s) are reading this topic (2 Guests and 0 Anonymous Users)
0 Members:

 



- Lo-Fi Version Support form
Copyrights and abuse reports form
Time is now: 20th July 2018 - 17:21:59