Welcome Guest ( Log In | Register )

 
Reply to this topicStart new topic
> Templario - Templario (2000), Heavy/Folk Metal (D8)
post Mar 12 2018, 15:11:12
Post #1

Serial Uploader
Group Icon
Group: V.I.P
Posts: 33,391
Releases: 31661
From: Lithuania
On Forums: 10 years 6 months
Thanks: 361714 time(s)
Lithuania


(IMG:https://metalarea.org/images/audiocovers/2018_Mar/acov_tid303184_thumb.jpg)

*Artist: Templario
*Album: Templario
*Year: 2000
*Genre: Heavy/Folk Metal
*Country: Spain (IMG:https://metalarea.org/forum/style_images/flags/Spain.png)
*Format: mp3@CBR320kbps
*Size: 104MB

Tracklist:
01. Fuerza Vital 05:51
02. Oda Al Marinero 03:43
03. Nada 04:44
04. El Hijo Del Alba 06:48
05. Basta 03:19
06. La Red 05:37
07. Juan El Labrador 04:39
08. Sacrifican 04:16
09. Miseria 06:00
******************************
Total playing time: 44:57

(IMG:https://metalarea.org/images/myspace.png)



Technical info
(IMG:https://metalarea.org/images/spectrogram/2018_Mar/8b537db49a1116f4bab279f83794b499.png)
Input File: 02. Oda al Marinero.mp3
Channels : 2
Sample Rate : 44100
Precision : 16-bit
Duration : 00:03:43.45 = 9854101 samples = 16758.7 CDDA sectors
File Size : 9.17M
Bit Rate : 328k
Sample Encoding: MPEG audio (layer I, II or III)
Comments :
Title=Oda al Marinero
Artist=Templario
Album=Templario
Tracknumber=2/9
Year=2018



Register


Go to the top of the page
  Insert nick Quick quote
+Quote Post

Reply to this topicStart new topic
1 User(s) are reading this topic (1 Guests and 0 Anonymous Users)
0 Members:

 



- Lo-Fi Version Support form
Copyrights and abuse reports form
Time is now: 12th December 2018 - 18:18:17