Welcome Guest ( Log In | Register )

 
Reply to this topicStart new topic
> Shockgnosis - Of Tyrants And Martyrs (2017), Industrial Groove Metal
post Mar 12 2018, 15:20:04
Post #1

Serial Uploader
Group Icon
Group: V.I.P
Posts: 32,850
Releases: 31144
From: Lithuania
On Forums: 10 years 1 month
Thanks: 356846 time(s)
Lithuania


(IMG:https://metalarea.org/images/audiocovers/2018_Mar/acov_tid303185_thumb.jpg)

*Artist: Shockgnosis
*Album: Of Tyrants And Martyrs
*Year: 2017
*Genre: Industrial Groove Metal
*Country: Germany (IMG:https://metalarea.org/forum/style_images/flags/Germany.png)
*Format: mp3@CBR320kbps
*Size: 75MB

Tracklist:
01. Prophets/ Liars/ Murderer 04:31
02. We Are God 03:51
03. Evidence Of Fraud 03:58
04. All Sinners Burn Slow 03:18
05. Chaos/ Fear/ Bloodshed 03:51
06. The Ultimate State Of Happiness 04:02
07. Forsaken And Banished 04:33
08. Black/ White 04:24
******************************
Total playing time: 32:28

(IMG:https://metalarea.org/images/myspace.png)


(IMG:https://metalarea.org/images/youtube.png)

Technical info
(IMG:https://metalarea.org/images/spectrogram/2018_Mar/25090701090763dc95780c726628d3d2.png)
Input File: 02. We Are God.mp3
Channels : 2
Sample Rate : 44100
Precision : 16-bit
Duration : 00:00:00.23 = 10187 samples = 17.3248 CDDA sectors
File Size : 9.42M
Bit Rate : 326M
Sample Encoding: MPEG audio (layer I, II or III)
Comments :
Title=We Are God
Artist=Shockgnosis
Album=Of Tyrants and Martyrs
Tracknumber=2/8
Year=2017-18-20
Discnumber=1/1



Register


Go to the top of the page
  Insert nick Quick quote
+Quote Post

Reply to this topicStart new topic
2 User(s) are reading this topic (2 Guests and 0 Anonymous Users)
0 Members:

 



- Lo-Fi Version Support form
Copyrights and abuse reports form
Time is now: 17th July 2018 - 07:11:55