Welcome Guest ( Log In | Register )

> Keiji Haino & Sumac - American Dollar Bill - Keep Facing Sideways, You're Too Hideous To Look At Face On [collaboration] (2018), Avant-Garde/Experimental/Psychedelic Rock | Sludge/Doom/Post-Metal
post Mar 12 2018, 15:34:50
Post #1

Serial Uploader
Group Icon
Group: V.I.P
Posts: 33,073
Releases: 31358
From: Lithuania
On Forums: 10 years 3 months
Thanks: 358694 time(s)
Lithuania


(IMG:https://metalarea.org/images/audiocovers/2018_Mar/acov_tid303188_thumb.jpg)

*Artist: Keiji Haino & Sumac
*Album: American Dollar Bill - Keep Facing Sideways, You're Too Hideous To Look At Face On [collaboration]
*Year: 2018
*Genre: Avant-Garde/Experimental/Psychedelic Rock | Sludge/Doom/Post-Metal
*Country: Japan (IMG:https://metalarea.org/forum/style_images/flags/Japan.png) | United States (IMG:https://metalarea.org/forum/style_images/flags/United%20States.png)
*Format: mp3@CBR320kbps
*Size: 153MB

Tracklist:
01. American Dollar Bill - Keep Facing Sideways, You're Too Hideous To Look At Face On 19:53
02. What Have I Done? (I Was Reeling In Something White And I Became Able To Do Anything I Made A Hole Imprisoned Time Within It Created Friction Stopped Listening To Warnings Ceased Fixing My Errors Made The Impossible Possible? Turned Sadness Into Joy) Pt. 1 09:01
03. I'm Over 137% A Love Junkie And Still It's Not Enough Pt. 1 11:07
04. I'm Over 137% A Love Junkie And Still It's Not Enough Pt. 2 15:41
05. What Have I Done? (I Was Reeling In Something White And I Became Able To Do Anything I Made A Hole Imprisoned Time Within It Created Friction Stopped Listening To Warnings Ceased Fixing My Errors Made The Impossible Possible? Turned Sadness Into Joy) Pt. 2 11:12
******************************
Total playing time: 1:06:54




Technical info
(IMG:https://metalarea.org/images/spectrogram/2018_Mar/3dedaa8557cfd33283e3800980d45167.png)
Input File: 02. What Have I Done Pt. 1.mp3
Channels : 2
Sample Rate : 44100
Precision : 16-bit
Duration : 00:09:01.49 = 23879841 samples = 40612 CDDA sectors
File Size : 21.7M
Bit Rate : 320k
Sample Encoding: MPEG audio (layer I, II or III)
Comments :
Title=What Have I Done? (I Was Reeling in Something White and I Became Able to Do Anything I Made a Hole Imprisoned Time Within It Created Friction Stopped Listening to Warnings Ceased Fixing My Errors Made the Impossible Possible? Turned Sadness Into Joy) Pt. 1
Artist=Keiji Haino + Sumac
Album=American Dollar Bill - Keep Facing Sideways, You’re Too Hideous to Look at Face On
Tracknumber=2
Year=2018
Genre=Metal



Register


Go to the top of the page
  Insert nick Quick quote
+Quote Post
 
Start new topic
Replies (1 - 2)
post Mar 13 2018, 04:23:12
Post #2

Detective Godzilla
**************
Group: Металариец
Posts: 2,571
Releases: 186
On Forums: 7 years 7 months
Thanks: 5518 time(s)
Russian Federation


А зачем жанры через черту? Это единый проект Хайно и Sumac


Thanks:
(1) Ghostb,
Go to the top of the page
  Insert nick Quick quote
+Quote Post
post Mar 13 2018, 18:16:12
Post #3

Шесть Литров
******
Group: Металариец
Posts: 691
Releases: 0
From: Харьков
On Forums: 8 years 11 months
Thanks: 219 time(s)
Ukraine


Что-то мне даже лень это слушать. Пост-Изисовские проекты Тернера почти все мимо.
Go to the top of the page
  Insert nick Quick quote
+Quote Post

Reply to this topicStart new topic
1 User(s) are reading this topic (1 Guests and 0 Anonymous Users)
0 Members:

 



- Lo-Fi Version Support form
Copyrights and abuse reports form
Time is now: 26th September 2018 - 01:06:21