Welcome Guest ( Log In | Register )

> Экстремист - Путаны из мрака (2018), Heavy/Thrash Metal/Black'n'Roll
post Mar 12 2018, 16:02:17
Post #1

Group: Подсевший
Posts: 46
Releases: 31
On Forums: 4 years 5 months
Thanks: 459 time(s)
Unknown


(IMG:https://metalarea.org/images/audiocovers/2018_Mar/acov_tid303189_thumb.jpg)

*Artist: Экстремист
*Album: Путаны из мрака
*Year: 2018
*Genre: Heavy/Thrash Metal/Black'n'Roll
*Country: Russian Federation (IMG:https://metalarea.org/forum/style_images/flags/Russian%20Federation.png)
*Format: mp3@CBR320kbps
*Size: 101MB

Tracklist:
1. Ночь разврата 04:24
2. Кровавая Мэри 04:53
3. Весёлая Джейн 05:12
4. Рабыня 04:53
5. Майн фрау! 03:44
6. Богиня Трактира 05:39
7. Чёрная Вдова 04:21
8. Лиза 03:46
9. Шлюхи Сатаны 04:43
******************************
Total playing time: 41:35



Technical info
(IMG:https://metalarea.org/images/spectrogram/2018_Mar/9b43992c1237b4f6f50685f384a16d93.png)
Input File: 09 Шлюхи Сатаны.mp3
Channels : 2
Sample Rate : 44100
Precision : 16-bit
Duration : 00:04:43.69 = 12510729 samples = 21276.8 CDDA sectors
File Size : 11.5M
Bit Rate : 325k
Sample Encoding: MPEG audio (layer I, II or III)
Comments :
Title=Шлюхи Сатаны
Artist=Экстремист
Album=Путаны из Мрака
Tracknumber=9
Year=2018



Register


Go to the top of the page
  Insert nick Quick quote
+Quote Post
 
Start new topic
Replies (1 - 5)
post Mar 13 2018, 08:17:33
Post #2

Четыре Литра
****
Group: Металариец
Posts: 304
Releases: 5
From: Рим
On Forums: 10 years 5 months
Thanks: 300 time(s)
Russian Federation


музня нормас,а вот вокал...
Go to the top of the page
  Insert nick Quick quote
+Quote Post
post Mar 13 2018, 18:11:51
Post #3

Маньяк
**********
Group: Металариец
Posts: 1,114
Releases: 0
From: Беларусь
On Forums: 10 years 8 months
Thanks: 401 time(s)
Russian Federation


ЦИТАТА(Necroalex @ Mar 13 2018, 10:17:33) *
музня нормас,а вот вокал...

Отличный вокал, если тебе не понравилось, не значит что он плох
Go to the top of the page
  Insert nick Quick quote
+Quote Post
post Mar 13 2018, 21:07:35
Post #4

_ - = # Thrashogolic # = - _ ... а давайте поржём все вместе
**************
Group: Металариец
Posts: 20,961
Releases: 4444
From: 404
On Forums: 8 years 3 months
Thanks: 27138 time(s)
Ukraine


ЦИТАТА(Scars @ Mar 12 2018, 17:02:17) *
*Album: Путаны из мрака

Ну, хоть не из (з)Ада (IMG:style_emoticons/default/1488.gif)

Такое себе - наигранно, и качество (сведения?) середина-конец 90х пост-советского пространства.

For the foreigners
Register
Go to the top of the page
  Insert nick Quick quote
+Quote Post
post Mar 13 2018, 21:44:40
Post #5

Аполітичний
**************
Group: Металариец
Posts: 5,191
Releases: 143
From: Тимчасово окупована територія - Юзівка
On Forums: 10 years 1 month
Thanks: 5405 time(s)
Ukraine


Вполне слушабельно.
Go to the top of the page
  Insert nick Quick quote
+Quote Post
post Mar 18 2018, 05:51:46
Post #6

Победитель судьбы
**************
Group: Металариец
Posts: 5,090
Releases: 0
From: Страны Мамонтов
On Forums: 11 years 7 months
Thanks: 1742 time(s)
Antarctica


А еще из мрака есть сутенеры
Go to the top of the page
  Insert nick Quick quote
+Quote Post

Reply to this topicStart new topic
1 User(s) are reading this topic (1 Guests and 0 Anonymous Users)
0 Members:

 



- Lo-Fi Version Support form
Copyrights and abuse reports form
Time is now: 26th September 2018 - 00:04:31