Welcome Guest ( Log In | Register )

 
Reply to this topicStart new topic
> Slamahoochee & Lynyrd Skyn Hyr & Garth Embrooksment & Charlie Slamiels Band & Rascal Flattulence - This Is Slam Country [split] (2018), Goregrind/Cybergrind
post Mar 12 2018, 16:03:17
Post #1

Serial Uploader
Group Icon
Group: V.I.P
Posts: 32,724
Releases: 31022
From: Lithuania
On Forums: 10 years 1 week
Thanks: 355657 time(s)
Lithuania


(IMG:https://metalarea.org/images/audiocovers/2018_Mar/acov_tid303190_thumb.jpg)

*Artist: Slamahoochee & Lynyrd Skyn Hyr & Garth Embrooksment & Charlie Slamiels Band & Rascal Flattulence
*Album: This Is Slam Country [split]
*Year: 2018
*Genre: Goregrind/Cybergrind | Goregrind/Cybergrind | Goregrind/Cybergrind | Goregrind/Cybergrind | Goregrind/Cybergrind
*Country: United States (IMG:https://metalarea.org/forum/style_images/flags/United%20States.png) | United States (IMG:https://metalarea.org/forum/style_images/flags/United%20States.png) | United States (IMG:https://metalarea.org/forum/style_images/flags/United%20States.png) | United States (IMG:https://metalarea.org/forum/style_images/flags/United%20States.png) | United States (IMG:https://metalarea.org/forum/style_images/flags/United%20States.png)
*Format: mp3@CBR320kbps
*Size: 48MB

Tracklist:
Slamahoochee:
01. Gestating Within The Dysmorphic Bowelmentation Of The Perverted Necrofascitizating Sociopolitical Decrepitude 01:08
02. Abortive Termination Of The Cerebrafied Enslammitude 01:28
03. Denny's Lumberjack Slam Breakfast (Come Undone) (Feat. Tony Molina) 01:49
Lynyrd Skyn Hyr:
04. They Call Me The Bree 01:01
05. That Smell (Intervaginal Uteran Anal Discharge)(Feat. AL) 00:34
06. Sweet Home Alaslama 01:06
Garth Embrooksment:
07. Raw Shit 00:50
08. You Alright With Grunge? (Ensouped By Grimness) (Feat. Alex Trebek And Bill Zebub) 02:35
09. Describin' Moms 00:56
Charlie Slamiels Band:
10. Adam Slamdler Eats Peyote And Argues With His Ignorant Horse 01:20
11. Monkey Goat Encouragement 00:53
12. Bill Cooper's Slammunion 02:16
Rascal Flattulence:
13. Stop Making Fart 01:27
14. Wheat 01:04
15. ASMR Slam 00:58
******************************
Total playing time: 19:25



Technical info
(IMG:https://metalarea.org/images/spectrogram/2018_Mar/398074e1106b524943c91345274b47c6.png)
Input File: 11. Monkey Goat Encouragement.mp3
Channels : 2
Sample Rate : 44100
Precision : 16-bit
Duration : 00:00:53.48 = 2358336 samples = 4010.78 CDDA sectors
File Size : 2.39M
Bit Rate : 357k
Sample Encoding: MPEG audio (layer I, II or III)
Comments :
Title=CHARLIE SLAMIELS BAND - Monkey Goat Encouragement
Artist=Chattahoochee Records
Album=This Is Slam Country
Tracknumber=11
Year=2018



Register


Go to the top of the page
  Insert nick Quick quote
+Quote Post

Reply to this topicStart new topic
1 User(s) are reading this topic (1 Guests and 0 Anonymous Users)
0 Members:

 



- Lo-Fi Version Support form
Copyrights and abuse reports form
Time is now: 20th June 2018 - 20:00:41