Welcome Guest ( Log In | Register )

> Kjøttkvern - Vise Makt [compilation] (2018), Atmospheric Raw Black Metal (D4)
post Mar 12 2018, 16:09:45
Post #1

Group: Подсевший
Posts: 48
Releases: 32
On Forums: 4 years 6 months
Thanks: 478 time(s)
Unknown


(IMG:https://metalarea.org/images/audiocovers/2018_Mar/acov_tid303191_thumb.jpg)

*Artist: Kjøttkvern
*Album: Vise Makt [compilation]
*Year: 2018
*Genre: Atmospheric Raw Black Metal
*Country: Russian Federation (IMG:https://metalarea.org/forum/style_images/flags/Russian%20Federation.png)
*Format: mp3@CBR320kbps
*Size: 169MB

Tracklist:
1. Velkommen Til Helvete 03:08
2. Under banneret av tyrannen 05:02
3. Kjøttkvern 06:41
4. Huggtenner Av Krigen 06:05
5. Endeløse Krigen 02:54
6. Strid 07:20
7. Soldatene–voldtektsforbrytere 04:42
8. Massakren 08:00
9. Gløden av grådighet 04:41
10. Sang av stål 04:46
11. Etter krigen 04:07
12. Strid (feat. SVT (Вѣдьма)) 07:35
13. Massakren (feat. SVT (Вѣдьма)) 08:09
******************************
Total playing time: 1:13:10


VK

Extended info
1-4 - "Velkommen Til Helvete" (Demo)
5-8 - "Endeløse Krigen" (Demo)
9-11 - "Sanger av stal" (Demo)
12-13 - Unreleased Demo with SVT (Вѣдьма)


Technical info
(IMG:https://metalarea.org/images/spectrogram/2018_Mar/ae3103a409be7389a36fa39e309e76ff.png)
Input File: 06 Strid.mp3
Channels : 2
Sample Rate : 44100
Precision : 16-bit
Duration : 00:07:20.60 = 19430284 samples = 33044.7 CDDA sectors
File Size : 17.7M
Bit Rate : 321k
Sample Encoding: MPEG audio (layer I, II or III)
Comments :
Title=Strid
Artist=KjГёttkvern
Album=Vise Makt
Tracknumber=6
Year=2018



Register


Go to the top of the page
  Insert nick Quick quote
+Quote Post
 
Start new topic
Replies (1 - 2)
post Mar 15 2018, 12:26:50
Post #2

Восемь Литров
********
Group: Металариец
Posts: 808
Releases: 0
From: Харьков
On Forums: 10 years 7 months
Thanks: 586 time(s)
Ukraine


Неплохо жужжит
Go to the top of the page
  Insert nick Quick quote
+Quote Post
post Mar 19 2018, 08:22:15
Post #3

Два Литра
**
Group: Завсегдатай
Posts: 123
Releases: 21
From: Узбекистан
On Forums: 8 years 4 months
Thanks: 161 time(s)
Uzbekistan


Военно-атмосферный, с нотками депрессии, релиз. Темно и красочно звучит.
Go to the top of the page
  Insert nick Quick quote
+Quote Post

Reply to this topicStart new topic
1 User(s) are reading this topic (1 Guests and 0 Anonymous Users)
0 Members:

 



- Lo-Fi Version Support form
Copyrights and abuse reports form
Time is now: 23rd October 2018 - 05:57:17