Welcome Guest ( Log In | Register )

> Separatism - Architect Of Consciousness (2018), Death Metal
post Mar 12 2018, 16:47:15
Post #1

Group: Подсевший
Posts: 42
Releases: 28
On Forums: 4 years 3 months
Thanks: 421 time(s)
Unknown


(IMG:https://metalarea.org/images/audiocovers/2018_Mar/acov_tid303192_thumb.jpg)

*Artist: Separatism
*Album: Architect Of Consciousness
*Year: 2018
*Genre: Death Metal
*Country: Russian Federation (IMG:https://metalarea.org/forum/style_images/flags/Russian%20Federation.png)
*Format: mp3@CBR320kbps
*Size: 95MB

Tracklist:
1. Religion = Anti-Gnosis 05:50
2. Primal Rage 05:42
3. Architect Of Consciousness 06:34
4. The Language Of Beheadings 04:18
5. The Rise Of Dajjal 07:19
6. Kill Kafir 05:33
7. The Last Flight 05:07
******************************
Total playing time: 40:23


VK

Technical info
(IMG:https://metalarea.org/images/spectrogram/2018_Mar/dd0c0a2e0ebdce20dd87540ecb3e5104.png)
Input File: 05 The Rise Of Dajjal.mp3
Channels : 2
Sample Rate : 44100
Precision : 16-bit
Duration : 00:07:19.68 = 19389932 samples = 32976.1 CDDA sectors
File Size : 17.7M
Bit Rate : 323k
Sample Encoding: MPEG audio (layer I, II or III)
Comments :
Title=The Rise Of Dajjal
Artist=Separatism
Album=Architect Of Consciousness
Tracknumber=5
Year=2018



Register


Go to the top of the page
  Insert nick Quick quote
+Quote Post
 
Start new topic
Replies (1 - 1)
post Mar 12 2018, 21:08:31
Post #2

MDM-Thrash Metal
**************
Group: Металариец
Posts: 6,883
Releases: 412
From: Одесса
On Forums: 10 years 11 months
Thanks: 13132 time(s)
Ukraine


Register


Go to the top of the page
  Insert nick Quick quote
+Quote Post

Reply to this topicStart new topic
2 User(s) are reading this topic (2 Guests and 0 Anonymous Users)
0 Members:

 



- Lo-Fi Version Support form
Copyrights and abuse reports form
Time is now: 20th July 2018 - 17:12:49