Welcome Guest ( Log In | Register )

> Declared Dead - Blood Bender (2018), Black/Death/Thrash Metal (D7)
post Mar 12 2018, 17:32:32
Post #1

Маньяк
**********
Group: Металариец
Posts: 1,419
Releases: 1207
From: Одесса
On Forums: 10 years 4 months
Thanks: 9413 time(s)
Ukraine


(IMG:http://metalarea.org/images/audiocovers/2018_Mar/acov_tid303194_thumb.jpg)

*Artist: Declared Dead
*Album: Blood Bender
*Year: 2018
*Genre: Black/Death/Thrash Metal
*Country: Belgium (IMG:http://metalarea.org/forum/style_images/flags/Belgium.png)
*Format: mp3@CBR320kbps
*Size: 112MB

Tracklist:
1. Scorn in the Aether 01:05
2. Ghouls Around the Blad 03:21
3. Arise in Thorns 04:52
4. Blood Bender 03:54
5. Severely Severed 03:57
6. Cutthroat Proclivity 03:39
7. The Ideal Torture 05:02
8. On Jagged Slopes 02:52
9. Segue to Satan 03:51
10. Tributary 04:27
11. Where Kali Dwells 04:35
******************************
Total playing time: 41:35



Extended info
Line - up:

Anders Milovovich - Vocals, Guitars
Deiter Cox - Bass, Vocals
Mikhel Van Zaal - Drums, Keyboards
Dimitri Nagel III - Guitars

(IMG:https://www.metal-archives.com/images/3/5/4/0/3540410802_photo.jpg?3319)


Technical info
(IMG:http://metalarea.org/images/spectrogram/2018_Mar/d1c15a133d94f2a7c4ed2a857e0468ab.png)
Input File: 01. Scorn in the Aether.mp3
Channels : 2
Sample Rate : 48000
Precision : 16-bit
Duration : 00:01:05.09 = 3124368 samples ~ 4881.82 CDDA sectors
File Size : 2.61M
Bit Rate : 321k
Sample Encoding: MPEG audio (layer I, II or III)
Comments :
Title=Scorn in the Aether
Artist=Declared Dead
Album=Blood Bender
Tracknumber=1
Year=2018
Genre=Black / Death / Thrash Metal



Register


Go to the top of the page
  Insert nick Quick quote
+Quote Post
 
Start new topic
Replies (1 - 2)
post Mar 13 2018, 07:38:37
Post #2

...
Group Icon
Group: S-moderation team
Posts: 7,249
Releases: 1288
On Forums: 7 years 7 months
Thanks: 35433 time(s)
Croatia


epic band photo (IMG:style_emoticons/default/1488.gif)


Go to the top of the page
  Insert nick Quick quote
+Quote Post
post Mar 13 2018, 09:06:18
Post #3

Аннигилятор пивА
Group Icon
Group: V.I.P
Posts: 49,556
Releases: 15326
From: Koenigsberg - TILZIT
On Forums: 12 years 4 months
Thanks: 334112 time(s)
Russian Federation


epic band photo-original
(IMG:https://preview.ibb.co/nbmbhx/photo.jpg)


Go to the top of the page
  Insert nick Quick quote
+Quote Post

Reply to this topicStart new topic
1 User(s) are reading this topic (1 Guests and 0 Anonymous Users)
0 Members:

 



- Lo-Fi Version Support form
Copyrights and abuse reports form
Time is now: 23rd October 2018 - 07:17:07