Welcome Guest ( Log In | Register )

> Nesseria - Cette érosion De Nous-mêmes (2017), Death/Black Metal/Grindcore (D4)
post Mar 12 2018, 18:24:08
Post #1

Маньяк
**********
Group: Металариец
Posts: 1,346
Releases: 1137
From: Одесса
On Forums: 10 years 2 months
Thanks: 8840 time(s)
Ukraine


(IMG:http://metalarea.org/images/audiocovers/2018_Mar/acov_tid303196_thumb.jpg)

*Artist: Nesseria
*Album: Cette érosion De Nous-mêmes
*Year: 2017
*Genre: Death/Black Metal/Grindcore
*Country: France (IMG:http://metalarea.org/forum/style_images/flags/France.png)
*Format: mp3@CBR320kbps
*Size: 93MB

Tracklist:
1. On prendra l'habitude 03:00
2. La chasse aux écureuils 04:14
3. Les ruines 04:01
4. À l'usure 03:09
5. St Petersburg 06:36
6. Forteresse 03:27
7. Pris à la gorge 04:08
8. Dans l'ombre et sans visage 05:06
9. Cette érosion de nous-mêmes 04:40
******************************
Total playing time: 38:21


Metal-archives

Extended info
Line - up:

Jérôme - Guitars
Dez - Vocals
Greg - Drums
Ben - Guitars
Benjamin - Bass

(IMG:https://f4.bcbits.com/img/0010781956_10.jpg)


Technical info
(IMG:http://metalarea.org/images/spectrogram/2018_Mar/f748e1abcb8723c5f2db0e51f12be922.png)
Input File: Nesseria - Cette Г©rosion de nous-mГЄmes - 03 Les ruines.mp3
Channels : 2
Sample Rate : 44100
Precision : 16-bit
Duration : 00:04:02.00 = 10672112 samples = 18149.9 CDDA sectors
File Size : 9.68M
Bit Rate : 320k
Sample Encoding: MPEG audio (layer I, II or III)
Comments :
Title=Les ruines
Artist=Nesseria
Album=Cette Г©rosion de nous-mГЄmes
Tracknumber=3
Year=2017
Genre=Death / Black Metal / Grindcore



Register


Go to the top of the page
  Insert nick Quick quote
+Quote Post
 
Start new topic
Replies (1 - 2)
post Mar 13 2018, 09:30:24
Post #2

Социопат.Маргинал. Мизантроп.Нигилист. Перверзный нарциссист.
**************
Group: Металариец
Posts: 5,269
Releases: 667
From: Город-герой Ленинград
On Forums: 7 years 6 months
Thanks: 5959 time(s)
Russian Federation


ЦИТАТА(Necrokilldozer @ 12th March 2018 - 18:24:08) *
Death/Black Metal/Grindcore

(IMG:style_emoticons/default/17.gif) (IMG:style_emoticons/default/13.gif) (IMG:style_emoticons/default/15.gif)


Thanks:
Go to the top of the page
  Insert nick Quick quote
+Quote Post
post Mar 13 2018, 19:19:01
Post #3

Правь статус, ####!111
**************
Group: Металариец
Posts: 2,420
Releases: 0
From: Одесса
On Forums: 10 years 5 months
Thanks: 901 time(s)
Ukraine


blackened hardcore would be more acceptable.
Go to the top of the page
  Insert nick Quick quote
+Quote Post

Reply to this topicStart new topic
1 User(s) are reading this topic (1 Guests and 0 Anonymous Users)
0 Members:

 



- Lo-Fi Version Support form
Copyrights and abuse reports form
Time is now: 22nd August 2018 - 08:28:11