Welcome Guest ( Log In | Register )

 
ОтветитьСоздать новую тему
> Suicide Cult - Suicide Cult [ep] (2018), Stoner/Doom Metal
post Mar 12 2018, 19:04:18
Post #1

Девять Литров
*********
Group: Металариец
Posts: 976
Releases: 370
On Forums: 7 years 6 months
Thanks: 7989 time(s)
North Korea


(IMG:http://metalarea.org/images/audiocovers/2018_Mar/acov_tid303198_thumb.jpg)

*Artist: Suicide Cult
*Album: Suicide Cult [ep]
*Year: 2018
*Genre: Stoner/Doom Metal
*Country: United States (IMG:http://metalarea.org/forum/style_images/flags/United%20States.png)
*Format: mp3@CBR320kbps
*Size: 51MB

Tracklist:
1.For Eternity 07:12
2.You're Trapped/One Way Out 06:12
3.Forever Undead 08:19
******************************
Total playing time: 21:43



Technical info
(IMG:http://metalarea.org/images/spectrogram/2018_Mar/b64c105f948b0c2648e4259b5cd65c81.png)
Input File: For eternity cut.mp3
Channels : 2
Sample Rate : 44100
Precision : 16-bit
Duration : 00:01:28.03 = 3882211 samples = 6602.4 CDDA sectors
File Size : 3.52M
Bit Rate : 320k
Sample Encoding: MPEG audio (layer I, II or III)



Register


Вернуться к началу страницы
  Insert nick Quick quote
+Цитировать сообщение

ОтветитьСоздать новую тему
1 User(s) are reading this topic (1 Guests and 0 Anonymous Users)
0 Members:

 



- Lo-Fi Version Support form
Copyrights and abuse reports form
Time is now: 24th May 2018 - 22:38:13