Welcome Guest ( Log In | Register )

> Lucretia - World Of Shades (2017), Old School Thrash/Death Metal
post Mar 12 2018, 19:30:32
Post #1

Правь статус, ####!111
**************
Group: Металариец
Posts: 14,621
Releases: 10089
From: Г.Харьков
On Forums: 6 years 5 months
Thanks: 166248 time(s)
Unknown


(IMG:https://metalarea.org/images/audiocovers/2018_Mar/acov_tid303199_thumb.jpg)

*Artist: Lucretia
*Album: World Of Shades
*Year: 2017
*Genre: Old School Thrash/Death Metal
*Country: Bulgaria (IMG:https://metalarea.org/forum/style_images/flags/Bulgaria.png)
*Format: mp3@CBR320kbps
*Size: 94MB

Tracklist:
1. World of Shades 06:00
2. Bloody Night 04:49
3. Choice of the Destiny 04:41
4. Seven Deadly Sins 04:52
5. The Name of the Rose 04:45
6. Back To Life 05:12
7. Human Search Machine 05:16
8. Face of the Silence 04:50
******************************
Total playing time: 40:25

Preview 1



Extended info
Teddy S. Guitars, Vocals
Alex S. Drums
George Y. Bass
Dragshan Vocals, guitars


Technical info
(IMG:https://metalarea.org/images/spectrogram/2018_Mar/86ab97d60944c63d95a1c4f853ba5156.png)
Input File: 02 - Bloody Night.mp3
Channels : 2
Sample Rate : 44100
Precision : 16-bit
Duration : 00:04:49.86 = 12782606 samples = 21739.1 CDDA sectors
File Size : 11.7M
Bit Rate : 324k
Sample Encoding: MPEG audio (layer I, II or III)
Comments :
Title=Bloody Night
Artist=Lucretia
Album=World of Shades
Tracknumber=2/8
Year=2017



Register


Go to the top of the page
  Insert nick Quick quote
+Quote Post
 
Start new topic
Replies (1 - 6)
post Mar 13 2018, 08:01:54
Post #2

Правь статус, ####!111
**************
Group: Металариец
Posts: 14,621
Releases: 10089
From: Г.Харьков
On Forums: 6 years 5 months
Thanks: 166248 time(s)
Unknown


Register


Go to the top of the page
  Insert nick Quick quote
+Quote Post
post Mar 13 2018, 17:08:44
Post #3

Маньяк
**********
Group: Металариец
Posts: 1,458
Releases: 0
From: Dnipro
On Forums: 10 years 3 months
Thanks: 388 time(s)
Ukraine


Колючий и злой музон.


Thanks:
Go to the top of the page
  Insert nick Quick quote
+Quote Post
post Mar 15 2018, 09:05:09
Post #4

Аполітичний
**************
Group: Металариец
Posts: 5,210
Releases: 143
From: Тимчасово окупована територія - Юзівка
On Forums: 10 years 2 months
Thanks: 5430 time(s)
Ukraine


Матерая бескомпромисная олда! (IMG:style_emoticons/default/metaler.gif)


Thanks:
Go to the top of the page
  Insert nick Quick quote
+Quote Post
post Mar 16 2018, 09:11:29
Post #5

Empty Words
***********
Group: Металариец
Posts: 1,924
Releases: 9
From: Москва
On Forums: 9 years 2 months
Thanks: 2227 time(s)
Russian Federation


ЦИТАТА(isvili @ Mar 13 2018, 19:08:44) *
Колючий и злой музон.

ЦИТАТА(neoatheist @ Mar 15 2018, 11:05:09) *
Матерая бескомпромисная олда! (IMG:style_emoticons/default/metaler.gif)

Не заметил ничего из этих пунктов.
Мелодичный трэш с обилием среднего и медленного темпа. Дэта не слышу. Есть динамичные, прикольные моменты, но больше половины — это вялое переминание яиц на месте.
Go to the top of the page
  Insert nick Quick quote
+Quote Post
post Mar 16 2018, 10:13:50
Post #6

Каратель
****
Group: Металариец
Posts: 377
Releases: 0
From: Przemysl
On Forums: 3 years 9 months
Thanks: 283 time(s)
Poland


ЦИТАТА(samokot @ Mar 16 2018, 10:11:29) *
Мелодичный трэш с обилием среднего и медленного темпа. Дэта не слышу. Есть динамичные, прикольные моменты, но больше половины — это вялое переминание яиц на месте.

(IMG:style_emoticons/default/17.gif) (IMG:style_emoticons/default/23.gif) Да ну неправда это!
Go to the top of the page
  Insert nick Quick quote
+Quote Post
post Mar 17 2018, 05:40:54
Post #7

South Of Heaven /адепт ВУДУ
**************
Group: Металариец
Posts: 13,084
Releases: 7
From: Санкт-Петербург
On Forums: 8 years 6 months
Thanks: 4751 time(s)
Russian Federation


Вроде как по олдскулу, но очень уж шаблонно, в итого становится довольно скучно всё это дело слушать.

У булгар надо вот от этих фанатеть: The Outer Limits - World Metal Domination (2014)

А почему на сайте нет французской Lucretia? Не порядок!
Go to the top of the page
  Insert nick Quick quote
+Quote Post

Reply to this topicStart new topic
1 User(s) are reading this topic (1 Guests and 0 Anonymous Users)
0 Members:

 



- Lo-Fi Version Support form
Copyrights and abuse reports form
Time is now: 23rd October 2018 - 06:47:14