Welcome Guest ( Log In | Register )

> Eradicator - Into Oblivion (2018), Old School Thrash Metal (D4)
post Mar 12 2018, 19:36:20
Post #1

Аннигилятор пивА
Group Icon
Group: V.I.P
Posts: 46,692
Releases: 14016
From: Koenigsberg - TILZIT
On Forums: 11 years 11 months
Thanks: 310881 time(s)
Russian Federation


(IMG:https://metalarea.org/images/audiocovers/2018_Mar/acov_tid303200_thumb.jpg)

*Artist: Eradicator
*Album: Into Oblivion
*Year: 2018
*Genre: Old School Thrash Metal
*Country: Germany (IMG:https://metalarea.org/forum/style_images/flags/Germany.png)
*Format: mp3@VBR279kbps
*Size: 88MB

Tracklist:
01. Moshproofed
02. Doomsday
03. Wake Up To War
04. Overcome The Blackness
05. Read Between The Lies
06. Into Oblivion
07. Decadence Remains
08. Paint The White Flag Black
09. Drown The Truth
10. Weaponized
******************************
Total playing time: 44:16



Extended info
Sebastian Stöber - Guitar/Vocals
Sebastian Zoppe - Bass
Jan-Peter Stöber - Drums
Robert Wied - Guitar


Technical info
(IMG:https://metalarea.org/images/spectrogram/2018_Mar/8c531505031352e46e7dbd76144e8675.png)
Input File: 02 - Doomsday.mp3
Channels : 2
Sample Rate : 44100
Precision : 16-bit
Duration : 00:04:46.57 = 12637869 samples = 21493 CDDA sectors
File Size : 10.1M
Bit Rate : 282k
Sample Encoding: MPEG audio (layer I, II or III)
Comments :
Title=Doomsday
Artist=Eradicator
Album=Into Oblivion
Tracknumber=2
Genre=Thrash Metal



Register


Вернуться к началу страницы
  Insert nick Quick quote
+Цитировать сообщение
 
Создать новую тему
Replies (1 - 2)
post Mar 13 2018, 08:05:26
Post #2

Аннигилятор пивА
Group Icon
Group: V.I.P
Posts: 46,692
Releases: 14016
From: Koenigsberg - TILZIT
On Forums: 11 years 11 months
Thanks: 310881 time(s)
Russian Federation


320/103MB
Register

Register


MIRROR VBR 279/88MB
Register





Вернуться к началу страницы
  Insert nick Quick quote
+Цитировать сообщение
post Mar 13 2018, 14:41:05
Post #3

Group: Подсевший
Posts: 26
Releases: 0
On Forums: 2 months 1 week
Thanks: 2 time(s)
Argentina


Thanks!!! (IMG:style_emoticons/default/dwarf-1.gif)
Вернуться к началу страницы
  Insert nick Quick quote
+Цитировать сообщение

ОтветитьСоздать новую тему
1 User(s) are reading this topic (1 Guests and 0 Anonymous Users)
0 Members:

 



- Lo-Fi Version Support form
Copyrights and abuse reports form
Time is now: 24th May 2018 - 22:37:21