Welcome Guest ( Log In | Register )

> Tchandala - Resilience (2017), Heavy Metal
post Mar 12 2018, 19:44:12
Post #1

Правь статус, ####!111
**************
Group: Металариец
Posts: 14,621
Releases: 10089
From: Г.Харьков
On Forums: 6 years 5 months
Thanks: 166249 time(s)
Unknown


(IMG:https://metalarea.org/images/audiocovers/2018_Mar/acov_tid303201_thumb.jpg)

*Artist: Tchandala
*Album: Resilience
*Year: 2017
*Genre: Heavy Metal
*Country: Brazil (IMG:https://metalarea.org/forum/style_images/flags/Brazil.png)
*Format: mp3@CBR320kbps
*Size: 126MB

Tracklist:
1. The Flame 05:01
2. Labyrinth 04:48
3. Valley of Greed 05:00
4. Lamento ao Velho Chico 01:19
5. Tears of River 05:57
6. Echos Through the Fourth Dimension 05:20
7. Flatland 05:14
8. Shadows 04:53
9. Father's Spirit 04:08
10. Caesar 04:56
11. Resilience 04:29
12. Echos Through the Fourth Dimension (Acoustic by Write Me a Letter) 04:30
******************************
Total playing time: 55:35



Extended info
Sandro Souza Bass
Pablo Rubino Drums
Dejair Benjamim Vocals
Thamise Ducci Guitars (2010-present)
Siuari Damaceno Guitars (2017-present)
See also: Silent Vanity


Technical info
(IMG:https://metalarea.org/images/spectrogram/2018_Mar/afc22127c4a89fc8426e9e34d1968df3.png)
Input File: 02 - Labyrinth.mp3
Channels : 2
Sample Rate : 44100
Precision : 16-bit
Duration : 00:04:48.65 = 12729597 samples = 21649 CDDA sectors
File Size : 11.6M
Bit Rate : 322k
Sample Encoding: MPEG audio (layer I, II or III)
Comments :
Title=Labyrinth
Artist=Tchandala
Album=Resilience
Tracknumber=2/12
Year=2017



Register


Go to the top of the page
  Insert nick Quick quote
+Quote Post
 
Start new topic
Replies (1 - 1)
post Mar 13 2018, 08:08:52
Post #2

Правь статус, ####!111
**************
Group: Металариец
Posts: 14,621
Releases: 10089
From: Г.Харьков
On Forums: 6 years 5 months
Thanks: 166249 time(s)
Unknown


Register


Thanks:
(1) scrimiums,
Go to the top of the page
  Insert nick Quick quote
+Quote Post

Reply to this topicStart new topic
1 User(s) are reading this topic (1 Guests and 0 Anonymous Users)
0 Members:

 



- Lo-Fi Version Support form
Copyrights and abuse reports form
Time is now: 23rd October 2018 - 07:16:46