Welcome Guest ( Log In | Register )

> The Ogre - Dead In The Water (2018), Progressive Death Metal
post Mar 12 2018, 21:17:56
Post #1

Аннигилятор пивА
Group Icon
Group: V.I.P
Posts: 48,128
Releases: 14601
From: Koenigsberg - TILZIT
On Forums: 12 years 2 months
Thanks: 321458 time(s)
Russian Federation


(IMG:https://metalarea.org/images/audiocovers/2018_Mar/acov_tid303204_thumb.jpg)

*Artist: The Ogre
*Album: Dead In The Water
*Year: 2018
*Genre: Progressive Death Metal
*Country: Brazil (IMG:https://metalarea.org/forum/style_images/flags/Brazil.png)
*Format: mp3@CBR320kbps
*Size: 88MB

Tracklist:
1. Black Goat of the Woods 05:03
2. Moon Structures 01:22
3. Cultus Mortuorum 08:02
4. Doppelgänger 04:01
5. The House of Silence 09:06
6. Phoenix Rising 05:33
7. They Return 03:08
8. This Broken Door 04:20
******************************
Total playing time: 40:35




Extended info
С некоторым дарковым(приблэкованным) окрасом.


Technical info
(IMG:https://metalarea.org/images/spectrogram/2018_Mar/b5a693153cdc653da7ae37a92a254f34.png)
Input File: 4 Doppelgänger.mp3
Channels : 2
Sample Rate : 44100
Precision : 16-bit
Duration : 00:04:01.34 = 10643270 samples = 18100.8 CDDA sectors
File Size : 9.73M
Bit Rate : 322k
Sample Encoding: MPEG audio (layer I, II or III)
Comments :
Title=Doppelgänger
Artist=The Ogre
Album=Dead in the Water
Tracknumber=4/8
Year=2018
Genre=17
Discnumber=1/1



Register


Go to the top of the page
  Insert nick Quick quote
+Quote Post
 
Start new topic
Replies (1 - 2)
post Mar 13 2018, 11:20:01
Post #2

Аннигилятор пивА
Group Icon
Group: V.I.P
Posts: 48,128
Releases: 14601
From: Koenigsberg - TILZIT
On Forums: 12 years 2 months
Thanks: 321458 time(s)
Russian Federation


mirror
Register

Register

Register


Go to the top of the page
  Insert nick Quick quote
+Quote Post
post Mar 17 2018, 11:42:26
Post #3

В чистоте и единстве:мысль-слово-дело
**************
Group: Металариец
Posts: 2,263
Releases: 9
From: Киев
On Forums: 11 years 1 month
Thanks: 1253 time(s)
Ukraine


Да вроде и не плохо. Но звук глуховат. А так изюминка есть.
Go to the top of the page
  Insert nick Quick quote
+Quote Post

Reply to this topicStart new topic
1 User(s) are reading this topic (1 Guests and 0 Anonymous Users)
0 Members:

 



- Lo-Fi Version Support form
Copyrights and abuse reports form
Time is now: 22nd August 2018 - 08:28:20