Welcome Guest ( Log In | Register )

> Orcus Patera - Schattenmarsch (2018), Progressive Black/Death Metal
post Mar 12 2018, 22:25:29
Post #1

Аннигилятор пивА
Group Icon
Group: V.I.P
Posts: 47,314
Releases: 14244
From: Koenigsberg - TILZIT
On Forums: 12 years 1 month
Thanks: 315586 time(s)
Russian Federation


(IMG:https://metalarea.org/images/audiocovers/2018_Mar/acov_tid303206_thumb.jpg)

*Artist: Orcus Patera
*Album: Schattenmarsch
*Year: 2018
*Genre: Progressive Black/Death Metal
*Country: Germany (IMG:https://metalarea.org/forum/style_images/flags/Germany.png)
*Format: mp3@CBR320kbps
*Size: 100MB

Tracklist:
01. Die grauen Herren
02. Schattenmarsch
03. Grablust
04. Jägersmann
05. Dunkle Schwaden (Muse in Ketten)
06. Schreitender Zerfall
07. Agateophobie
08. Ma Reine
******************************
Total playing time: 46:16


Preview 2

Extended info
Mo - Vocals
Frank - Guitar/Vocals
Erik - Guitar
Thomas - Bass
Zigor - Drums


Technical info
(IMG:https://metalarea.org/images/spectrogram/2018_Mar/309995165e88b08c509e7b4955ace14b.png)
Input File: 7 Agateophobie.mp3
Channels : 2
Sample Rate : 44100
Precision : 16-bit
Duration : 00:03:48.60 = 10081084 samples = 17144.7 CDDA sectors
File Size : 9.25M
Bit Rate : 324k
Sample Encoding: MPEG audio (layer I, II or III)
Comments :
Title=Agateophobie
Artist=Orcus Patera
Album=Schattenmarsch
Tracknumber=7/8
Year=2018
Genre=9
Discnumber=1/1



Register


Go to the top of the page
  Insert nick Quick quote
+Quote Post
 
Start new topic
Replies (1 - 4)
post Mar 13 2018, 11:20:49
Post #2

Аннигилятор пивА
Group Icon
Group: V.I.P
Posts: 47,314
Releases: 14244
From: Koenigsberg - TILZIT
On Forums: 12 years 1 month
Thanks: 315586 time(s)
Russian Federation


mirror
Register

Register

Register


Thanks:
Go to the top of the page
  Insert nick Quick quote
+Quote Post
post Mar 13 2018, 12:10:11
Post #3

Два Литра
**
Group: Завсегдатай
Posts: 145
Releases: 0
From: Россия
On Forums: 6 years 5 months
Thanks: 47 time(s)
Russian Federation


Тебя опять обманули с переливом (IMG:style_emoticons/default/1488.gif) Это демо 2017г.

https://www.youtube.com/watch?v=6gi5Rer2rNo
Go to the top of the page
  Insert nick Quick quote
+Quote Post
post Mar 13 2018, 15:00:11
Post #4

hearer & reader
**************
Group: Металариец
Posts: 6,505
Releases: 81
From: Moscow
On Forums: 10 years 10 months
Thanks: 6454 time(s)
Russian Federation


ЦИТАТА(Kehl05 @ Mar 13 2018, 14:10:11) *
Тебя опять обманули с переливом (IMG:style_emoticons/default/1488.gif) Это демо 2017г.

Ну не опять эта хня! Сколько можно ep-lp-demo-хренемо обтирать.
Мне интересны лишь продолжительность альбама и качество записи.
...
И сам материал, конечно.


Thanks:
Go to the top of the page
  Insert nick Quick quote
+Quote Post
post Mar 13 2018, 15:59:00
Post #5

Аннигилятор пивА
Group Icon
Group: V.I.P
Posts: 47,314
Releases: 14244
From: Koenigsberg - TILZIT
On Forums: 12 years 1 month
Thanks: 315586 time(s)
Russian Federation


ЦИТАТА(Kehl05 @ Mar 13 2018, 11:10:11) *
Тебя опять обманули

как ты задрал своим нытьем с самаритянином на пару, это, цитирую: "New song from our upcoming album SCHATTENMARSCH! Enjoy and bang your head \m/"
Go to the top of the page
  Insert nick Quick quote
+Quote Post

Reply to this topicStart new topic
2 User(s) are reading this topic (2 Guests and 0 Anonymous Users)
0 Members:

 



- Lo-Fi Version Support form
Copyrights and abuse reports form
Time is now: 17th July 2018 - 06:59:31