Welcome Guest ( Log In | Register )

> Distilled Spirits - Distribution (2018), Thrash Metal
post Mar 13 2018, 05:11:12
Post #1

Правь статус, ####!111
**************
Group: Металариец
Posts: 13,032
Releases: 9252
From: Г.Харьков
On Forums: 6 years 1 week
Thanks: 150405 time(s)
Unknown


(IMG:https://metalarea.org/images/audiocovers/2018_Mar/acov_tid303208_thumb.png)

*Artist: Distilled Spirits
*Album: Distribution
*Year: 2018
*Genre: Thrash Metal
*Country: United States (IMG:https://metalarea.org/forum/style_images/flags/United%20States.png)
*Format: mp3@CBR320kbps
*Size: 101MB

Tracklist:
1. Demolition
2. 6 Feet Under
3. Kill the Monster
4. Death Sentence
5. The Anthem
6. 6
7. The Deceiver
8. Mile Stoned
9. Morality
10. New World Order
******************************
Total playing time: 42:04




Extended info
Mikey Death Bass
Tommy Paul Drums
Mark Henderson Guitars
Dave Johan Guitars
Mike Meloni Vocals


Technical info
(IMG:https://metalarea.org/images/spectrogram/2018_Mar/30a7965bf778ad1493d8ec51fbe0d7ea.png)
Input File: 2 - 6 Feet Under.mp3
Channels : 2
Sample Rate : 44100
Precision : 16-bit
Duration : 00:04:04.66 = 10789594 samples = 18349.6 CDDA sectors
File Size : 10.3M
Bit Rate : 337k
Sample Encoding: MPEG audio (layer I, II or III)
Comments :
Title=6 Feet Under
Artist=Distilled Spirits
Album=Distribution
Tracknumber=2/10
Year=2018
Genre=Thrash Metal
Discnumber=1/1



Register


Вернуться к началу страницы
  Insert nick Quick quote
+Цитировать сообщение
 
Создать новую тему
Replies (1 - 3)
post Mar 13 2018, 14:41:53
Post #2

Group: Подсевший
Posts: 26
Releases: 0
On Forums: 2 months 1 week
Thanks: 2 time(s)
Argentina


Thanks!!! (IMG:style_emoticons/default/banana.gif)
Вернуться к началу страницы
  Insert nick Quick quote
+Цитировать сообщение
post Mar 13 2018, 17:18:23
Post #3

Девять Литров
*********
Group: Металариец
Posts: 990
Releases: 0
From: Dnipro
On Forums: 9 years 10 months
Thanks: 253 time(s)
Ukraine


Какая то модернятина несуразная.


Thanks:
(1) AHBAnep,
Вернуться к началу страницы
  Insert nick Quick quote
+Цитировать сообщение
post Mar 16 2018, 14:54:53
Post #4

MDM-Thrash Metal
**************
Group: Металариец
Posts: 6,684
Releases: 410
From: Одесса
On Forums: 10 years 9 months
Thanks: 12735 time(s)
Ukraine


Register
Вернуться к началу страницы
  Insert nick Quick quote
+Цитировать сообщение

ОтветитьСоздать новую тему
1 User(s) are reading this topic (1 Guests and 0 Anonymous Users)
0 Members:

 



- Lo-Fi Version Support form
Copyrights and abuse reports form
Time is now: 24th May 2018 - 22:38:29