Welcome Guest ( Log In | Register )

> Poisöncharge - Mechanical Sabbath (2018), Black/Speed Metal/Punk
post Mar 13 2018, 05:45:07
Post #1

Аннигилятор пивА
Group Icon
Group: V.I.P
Posts: 46,692
Releases: 14016
From: Koenigsberg - TILZIT
On Forums: 11 years 11 months
Thanks: 310881 time(s)
Russian Federation


(IMG:https://metalarea.org/images/audiocovers/2018_Mar/acov_tid303209_thumb.jpg)

*Artist: Poisöncharge
*Album: Mechanical Sabbath
*Year: 2018
*Genre: Black/Speed Metal/Punk
*Country: France (IMG:https://metalarea.org/forum/style_images/flags/France.png)
*Format: mp3@CBR320kbps
*Size: 66MB

Tracklist:
1. Mechanical Sabbath 04:15
2. Mistress Of Dusk 02:52
3. Embrace Freedom, Embrace Satan 03:30
4. Conjuration Of The Iron Stallion 03:08
5. Real Steel Ritual 03:23
6. All Black All The Time 03:21
7. Sparks And Grease 02:47
8. Night Of The Werewolves 04:17
******************************
Total playing time: 27:33




Extended info
Greasegrinder J. - Guitars, Vocals (Temple of Worms, Coffin Terror, Jeremy Wray, Pulsating Cerebral Slime, ex-Necrowretch, ex-Varech, ex-Axeman, ex-Bizarre Hacking Ritual)
Enno - Drums, Backing Vocals (Temple Of Worms, Dysylumn)
Alexandre "Lenos" Thiong-Sion - Bass, Backing Vocals (2017-present) See also: Aeon Patronist, Dysylumn

Poisöncharge combines d-beat, traditional heavy metal and first wave black metal to carry on the legacy of the devil's music, rock'n'roll, a fitting soundtrack for chopper riding chaos witches all over the world.


Technical info
(IMG:https://metalarea.org/images/spectrogram/2018_Mar/06234272ef9389a8609320857ba508ba.png)
Input File: 1 - Mechanical Sabbath.mp3
Channels : 2
Sample Rate : 44100
Precision : 16-bit
Duration : 00:04:15.53 = 11268873 samples = 19164.8 CDDA sectors
File Size : 10.8M
Bit Rate : 337k
Sample Encoding: MPEG audio (layer I, II or III)
Comments :
Title=Mechanical Sabbath
Artist=Poisöncharge
Album=Mechanical Sabbath
Tracknumber=1/8
Year=2018
Genre=Black Metal
Discnumber=1/1



Register


Вернуться к началу страницы
  Insert nick Quick quote
+Цитировать сообщение
 
Создать новую тему
Replies (1 - 3)
post Mar 13 2018, 11:22:16
Post #2

Аннигилятор пивА
Group Icon
Group: V.I.P
Posts: 46,692
Releases: 14016
From: Koenigsberg - TILZIT
On Forums: 11 years 11 months
Thanks: 310881 time(s)
Russian Federation


MIRROR
Register



Вернуться к началу страницы
  Insert nick Quick quote
+Цитировать сообщение
post Mar 15 2018, 09:06:29
Post #3

Аполітичний
**************
Group: Металариец
Posts: 5,062
Releases: 143
From: Тимчасово окупована територія - Юзівка
On Forums: 9 years 9 months
Thanks: 5294 time(s)
Ukraine


Офигительная мелодика! (IMG:style_emoticons/default/20.gif)
Вернуться к началу страницы
  Insert nick Quick quote
+Цитировать сообщение
post Mar 15 2018, 13:18:02
Post #4

\m/
Group Icon
Group: S-moderation team
Posts: 7,396
Releases: 19
From: Петропавловск-Камчатский
On Forums: 8 years 11 months
Thanks: 6617 time(s)
Russian Federation


(IMG:style_emoticons/default/metaler.gif) блэко-нрольный-трэшевый моторхэд, одобрямс (IMG:style_emoticons/default/20.gif)
Вернуться к началу страницы
  Insert nick Quick quote
+Цитировать сообщение

ОтветитьСоздать новую тему
1 User(s) are reading this topic (1 Guests and 0 Anonymous Users)
0 Members:

 



- Lo-Fi Version Support form
Copyrights and abuse reports form
Time is now: 24th May 2018 - 22:38:38