Welcome Guest ( Log In | Register )

> Arkham Witch - Get Thothed, Vol. III [ep] (2018), Heavy/Doom Metal (D)
post Mar 13 2018, 05:57:23
Post #1

Правь статус, ####!111
**************
Group: Металариец
Posts: 13,032
Releases: 9252
From: Г.Харьков
On Forums: 6 years 1 week
Thanks: 150405 time(s)
Unknown


(IMG:https://metalarea.org/images/audiocovers/2018_Mar/acov_tid303210_thumb.jpg)

*Artist: Arkham Witch
*Album: Get Thothed, Vol. III [ep]
*Year: 2018
*Genre: Heavy/Doom Metal
*Country: United Kingdom (IMG:https://metalarea.org/forum/style_images/flags/United%20Kingdom.png)
*Format: mp3@CBR320kbps
*Size: 114MB

Tracklist:
1. Emperor of Dreams 04:55
2. The Beast and the Black Art 11:12
3. Lord of the Midnight Hour 07:44
4. This Wretched World Forlorn 10:48
5. Wizard of the Gloves 07:05
6. The Marriage of the Ghouls 08:21
******************************
Total playing time: 50:05




Extended info
Smoky Aftertaste Drums
Woody Notes Vocals, Bass, Keyboards
Curly Fries Guitars (rhythm)
Velvety Undertones Guitars (lead)


Technical info
(IMG:https://metalarea.org/images/spectrogram/2018_Mar/20e7d2fa1a1a4c63ab27e686ee920829.png)
Input File: 1 - Emperor of Dreams.mp3
Channels : 2
Sample Rate : 44100
Precision : 16-bit
Duration : 00:04:55.58 = 13035078 samples = 22168.5 CDDA sectors
File Size : 11.8M
Bit Rate : 320k
Sample Encoding: MPEG audio (layer I, II or III)
Comments :
Title=Emperor of Dreams
Artist=Arkham Witch
Album=Get Thothed, Vol. III
Tracknumber=1/6
Year=2018
Genre=Heavy Metal
Discnumber=1/1



Register


Вернуться к началу страницы
  Insert nick Quick quote
+Цитировать сообщение
 
Создать новую тему
Replies (1 - 3)
post Mar 18 2018, 08:42:32
Post #2

Пять Литров
*****
Group: Металариец
Posts: 410
Releases: 0
On Forums: 12 years 4 months
Thanks: 13 time(s)
Russian Federation


Great stuff, thanks.
Вернуться к началу страницы
  Insert nick Quick quote
+Цитировать сообщение
post Mar 22 2018, 18:48:44
Post #3

Наливай!
**************
Group: Металариец
Posts: 4,977
Releases: 27
From: Москва-Бибирево
On Forums: 10 years 2 months
Thanks: 2298 time(s)
Russian Federation


А вот это уже гораздо интереснее, чем прошлые ипиха и полноформат. Звук подтянули на отлично. И даже какой никакой хитяра есть.
Вернуться к началу страницы
  Insert nick Quick quote
+Цитировать сообщение
post Mar 22 2018, 19:23:55
Post #4

necrophilosopher
*********
Group: Металариец
Posts: 931
Releases: 0
From: Ад-на-Земле
On Forums: 9 years 4 months
Thanks: 751 time(s)
Uzbekistan


И ни одной песни знакомой, что в общем то и к лучшему, так как предыдущие переигровки оригиналу проигрывали. Если это и песни The Lamp Of Thoth, то Саймон их видимо писал в стол. А по звуку и раньше всё было путём.
Вернуться к началу страницы
  Insert nick Quick quote
+Цитировать сообщение

ОтветитьСоздать новую тему
1 User(s) are reading this topic (1 Guests and 0 Anonymous Users)
0 Members:

 



- Lo-Fi Version Support form
Copyrights and abuse reports form
Time is now: 24th May 2018 - 22:38:56