Welcome Guest ( Log In | Register )

> Cryptic Prophecy - Born Of Chaos (2018), Melodic Death/Thrash Metal
post Mar 13 2018, 07:00:15
Post #1

Аннигилятор пивА
Group Icon
Group: V.I.P
Posts: 47,314
Releases: 14244
From: Koenigsberg - TILZIT
On Forums: 12 years 1 month
Thanks: 315586 time(s)
Russian Federation


(IMG:https://metalarea.org/images/audiocovers/2018_Mar/acov_tid303211_thumb.jpg)

*Artist: Cryptic Prophecy
*Album: Born Of Chaos
*Year: 2018
*Genre: Melodic Death/Thrash Metal
*Country: United States (IMG:https://metalarea.org/forum/style_images/flags/United%20States.png)
*Format: mp3@CBR320kbps
*Size: 93MB

Tracklist:
01. Godless 03:30
02. I.E.D. 03:57
03. Nocturnal 03:57
04. Dream 04:17
05. Inferno 04:28
06. The Futile Struggle, pt. 1 01:31
07. The Futile Struggle, pt. 2 04:19
08. Tranquility 01:17
09. Drink, Feast, Fight! (Bonus Track) 02:17
10. Over the Yonder (Bonus Track) 03:29
11. Plight (Bonus Track) 05:22
******************************
Total playing time: 38:24




Extended info
Andrew Manuele - Lead Vocals, Guitars (ex-Aequitas a Noctem, ex-Noxx)
Alex Torke - Bass, Backing Vocals (ex-Noxx, ex-Aequitas a Noctem)
Cris Leiva - Drums, Backing Vocals (ex-Aequitas a Noctem, ex-Noxx)


Technical info
(IMG:https://metalarea.org/images/spectrogram/2018_Mar/cca39ce98b6f05fd415cf2836eb9749f.png)
Input File: 1 - Godless.mp3
Channels : 2
Sample Rate : 44100
Precision : 16-bit
Duration : 00:03:30.13 = 9266513 samples = 15759.4 CDDA sectors
File Size : 8.73M
Bit Rate : 332k
Sample Encoding: MPEG audio (layer I, II or III)
Comments :
Title=Godless
Artist=Cryptic Prophecy
Album=Born of Chaos
Tracknumber=1/11
Year=2018
Genre=Death Metal
Discnumber=1/1



Register


Go to the top of the page
  Insert nick Quick quote
+Quote Post
 
Start new topic
Replies (1 - 4)
post Mar 13 2018, 13:58:53
Post #2

MDM-Thrash Metal
**************
Group: Металариец
Posts: 6,873
Releases: 412
From: Одесса
On Forums: 10 years 11 months
Thanks: 13122 time(s)
Ukraine


Вот эта х (IMG:style_emoticons/default/6.gif) йня мелодезом зовется??? (IMG:style_emoticons/default/fear.gif)


Thanks:
(1) AHBAnep,
Go to the top of the page
  Insert nick Quick quote
+Quote Post
post Mar 13 2018, 14:03:44
Post #3

زرنيخ
*********
Group: Металариец
Posts: 920
Releases: 3
From: Санкт-Петербург
On Forums: 3 years 3 months
Thanks: 1134 time(s)
Russian Federation


ЦИТАТА(Andrew @ 13th March 2018 - 15:58:53) *
эта (IMG:style_emoticons/default/12.gif) уйня

Мужчина (?) на обложке как бы огорчается от таких слов.
Go to the top of the page
  Insert nick Quick quote
+Quote Post
post Mar 13 2018, 16:45:44
Post #4

Два Литра
**
Group: Завсегдатай
Posts: 120
Releases: 0
On Forums: 10 years 6 months
Thanks: 9 time(s)
Russian Federation


Ну а чо? Нормально! Не мелодез, конечно...
Go to the top of the page
  Insert nick Quick quote
+Quote Post
post Mar 16 2018, 04:37:55
Post #5

Ъ
**************
Group: Металариец
Posts: 9,090
Releases: 9
On Forums: 9 years 6 months
Thanks: 1726 time(s)
Sweden


ЦИТАТА(Andrew @ Mar 13 2018, 19:58:53) *
Вот эта х (IMG:style_emoticons/default/6.gif) йня мелодезом зовется??? (IMG:style_emoticons/default/fear.gif)


Согласен, дичь какая то.
Go to the top of the page
  Insert nick Quick quote
+Quote Post

Reply to this topicStart new topic
2 User(s) are reading this topic (2 Guests and 0 Anonymous Users)
0 Members:

 



- Lo-Fi Version Support form
Copyrights and abuse reports form
Time is now: 17th July 2018 - 06:57:54