Welcome Guest ( Log In | Register )

> Lethvm - This Fall Shall Cease (2017), Sludge/Doom Metal
post Mar 13 2018, 07:31:12
Post #1

Правь статус, ####!111
**************
Group: Металариец
Posts: 13,957
Releases: 9739
From: Г.Харьков
On Forums: 6 years 3 months
Thanks: 159851 time(s)
Unknown


(IMG:https://metalarea.org/images/audiocovers/2018_Mar/acov_tid303213_thumb.jpg)

*Artist: Lethvm
*Album: This Fall Shall Cease
*Year: 2017
*Genre: Sludge/Doom Metal
*Country: Belgium (IMG:https://metalarea.org/forum/style_images/flags/Belgium.png)
*Format: mp3@CBR320kbps
*Size: 96MB

Tracklist:
1. Impetius 01:08
2. Wandering At Dawn 06:32
3. The Last Grave 05:41
4. Winter's Journey 05:36
5. The Shades Of Minerva 06:51
6. An Encounter With The Sun 08:35
7. Ejla 07:29
******************************
Total playing time: 41:52




Extended info
Ben,
Vincent,
Tony,
Mathieu.


Technical info
(IMG:https://metalarea.org/images/spectrogram/2018_Mar/7f813746da8d98a7ce7630f8918a083d.png)
Input File: 02 - Wandering at Dawn.mp3
Channels : 2
Sample Rate : 44100
Precision : 16-bit
Duration : 00:06:32.27 = 17298887 samples = 29419.9 CDDA sectors
File Size : 15.8M
Bit Rate : 322k
Sample Encoding: MPEG audio (layer I, II or III)
Comments :
Title=Wandering at Dawn
Artist=Lethvm
Album=This Fall Shall Cease
Tracknumber=2/7
Year=2017



Register


Go to the top of the page
  Insert nick Quick quote
+Quote Post
 
Start new topic
Replies (1 - 2)
post Mar 13 2018, 13:15:37
Post #2

Group: Подсевший
Posts: 35
Releases: 0
On Forums: 10 months 16 hours
Thanks: 34 time(s)
Russian Federation


ап из ВБР?
Go to the top of the page
  Insert nick Quick quote
+Quote Post
post Mar 13 2018, 13:46:11
Post #3

MDM-Thrash Metal
**************
Group: Металариец
Posts: 6,966
Releases: 412
From: Одесса
On Forums: 11 years 1 week
Thanks: 13269 time(s)
Ukraine


Register


Go to the top of the page
  Insert nick Quick quote
+Quote Post

Reply to this topicStart new topic
1 User(s) are reading this topic (1 Guests and 0 Anonymous Users)
0 Members:

 



- Lo-Fi Version Support form
Copyrights and abuse reports form
Time is now: 22nd August 2018 - 08:28:18