Welcome Guest ( Log In | Register )

> Lethvm - This Fall Shall Cease (2017), Sludge/Doom Metal
post Mar 13 2018, 07:31:12
Post #1

Правь статус, ####!111
**************
Group: Металариец
Posts: 13,032
Releases: 9252
From: Г.Харьков
On Forums: 6 years 1 week
Thanks: 150405 time(s)
Unknown


(IMG:https://metalarea.org/images/audiocovers/2018_Mar/acov_tid303213_thumb.jpg)

*Artist: Lethvm
*Album: This Fall Shall Cease
*Year: 2017
*Genre: Sludge/Doom Metal
*Country: Belgium (IMG:https://metalarea.org/forum/style_images/flags/Belgium.png)
*Format: mp3@CBR320kbps
*Size: 96MB

Tracklist:
1. Impetius 01:08
2. Wandering At Dawn 06:32
3. The Last Grave 05:41
4. Winter's Journey 05:36
5. The Shades Of Minerva 06:51
6. An Encounter With The Sun 08:35
7. Ejla 07:29
******************************
Total playing time: 41:52




Extended info
Ben,
Vincent,
Tony,
Mathieu.


Technical info
(IMG:https://metalarea.org/images/spectrogram/2018_Mar/7f813746da8d98a7ce7630f8918a083d.png)
Input File: 02 - Wandering at Dawn.mp3
Channels : 2
Sample Rate : 44100
Precision : 16-bit
Duration : 00:06:32.27 = 17298887 samples = 29419.9 CDDA sectors
File Size : 15.8M
Bit Rate : 322k
Sample Encoding: MPEG audio (layer I, II or III)
Comments :
Title=Wandering at Dawn
Artist=Lethvm
Album=This Fall Shall Cease
Tracknumber=2/7
Year=2017



Register


Вернуться к началу страницы
  Insert nick Quick quote
+Цитировать сообщение
 
Создать новую тему
Replies (1 - 2)
post Mar 13 2018, 13:15:37
Post #2

Group: Подсевший
Posts: 21
Releases: 0
On Forums: 7 months 2 days
Thanks: 28 time(s)
Russian Federation


ап из ВБР?
Вернуться к началу страницы
  Insert nick Quick quote
+Цитировать сообщение
post Mar 13 2018, 13:46:11
Post #3

MDM-Thrash Metal
**************
Group: Металариец
Posts: 6,684
Releases: 410
From: Одесса
On Forums: 10 years 9 months
Thanks: 12735 time(s)
Ukraine


Register


Вернуться к началу страницы
  Insert nick Quick quote
+Цитировать сообщение

ОтветитьСоздать новую тему
1 User(s) are reading this topic (1 Guests and 0 Anonymous Users)
0 Members:

 



- Lo-Fi Version Support form
Copyrights and abuse reports form
Time is now: 24th May 2018 - 22:38:47