Welcome Guest ( Log In | Register )

> Funeris - Baleful Astral Elements (2018), Funeral Doom Metal (D7)
post Mar 13 2018, 11:39:56
Post #1

Восемь Литров
********
Group: Металариец
Posts: 805
Releases: 675
From: Новороссийск
On Forums: 7 years 3 months
Thanks: 11485 time(s)
Russian Federation


(IMG:https://metalarea.org/images/audiocovers/2018_Mar/acov_tid303217_thumb.jpg)

*Artist: Funeris
*Album: Baleful Astral Elements
*Year: 2018
*Genre: Funeral Doom Metal
*Country: Argentina (IMG:https://metalarea.org/forum/style_images/flags/Argentina.png)
*Format: mp3@VBR286kbps
*Size: 112MB

Tracklist:
01. Ab Initio 03:56
02. Las Fauces Del Cataclismo 10:33
03. Through The Vast Cosmic Plains 12:12
04. En La Piel De La Eternidad 12:03
05. Stellar Abysses 10:51
06. Everlasting (Thergothon cover) 07:11
******************************
Total playing time: 56:50




Technical info
(IMG:https://metalarea.org/images/spectrogram/2018_Mar/ea5c7aa31019ec974c9716e088adb54f.png)
Input File: 02. Las Fauces Del Cataclismo.mp3
Channels : 2
Sample Rate : 44100
Precision : 16-bit
Duration : 00:10:34.02 = 27960150 samples = 47551.3 CDDA sectors
File Size : 21.9M
Bit Rate : 276k
Sample Encoding: MPEG audio (layer I, II or III)
Comments :
Title=Las Fauces Del Cataclismo
Artist=Funeris
Album=Baleful Astral Elements
Tracknumber=02
Year=2018
Genre=Doom Metal



Register


Go to the top of the page
  Insert nick Quick quote
+Quote Post
 
Start new topic
Replies (1 - 5)
post Mar 13 2018, 12:55:19
Post #2

Black Metal Terrorist
********
Group: Металариец
Posts: 838
Releases: 1
On Forums: 5 years 5 months
Thanks: 376 time(s)
Russian Federation


2019? (IMG:style_emoticons/default/11.gif)
Go to the top of the page
  Insert nick Quick quote
+Quote Post
post Mar 13 2018, 13:57:35
Post #3

MDM-Thrash Metal
**************
Group: Металариец
Posts: 6,966
Releases: 412
From: Одесса
On Forums: 11 years 1 week
Thanks: 13269 time(s)
Ukraine


Register


Go to the top of the page
  Insert nick Quick quote
+Quote Post
post Mar 13 2018, 16:31:44
Post #4

funeral doom fan
Group Icon
Group: S-moderation team
Posts: 4,747
Releases: 2451
From: Ростов-на-Дону
On Forums: 12 years 7 months
Thanks: 45476 time(s)
Russian Federation


Кавер на Thergothon - единственное достойное внимания здесь.
Go to the top of the page
  Insert nick Quick quote
+Quote Post
post Mar 14 2018, 03:26:39
Post #5

Group: Дух
Posts: 2
Releases: 0
From: Mйxico
On Forums: 1 year 1 month
Thanks: 0 time(s)
Mexico


Muchas gracias por compartirlo.
Go to the top of the page
  Insert nick Quick quote
+Quote Post
post Mar 14 2018, 12:25:19
Post #6

赑屃
***
Group: Завсегдатай
Posts: 205
Releases: 5
From: Луганск
On Forums: 1 year 4 months
Thanks: 100 time(s)
Russian Federation


(IMG:style_emoticons/default/6.gif) Funeris - Everlasting (Thergothon cover, 2017) https://youtu.be/AHJewcICeKc

Хороший правильный фунерал, без новомодных дэзовых взрывов, мелодичных симфосоплей и прочей манихейской ереси.. Немного органа и почти осязаемая скорбь туманного кладбища..
ПыСы: Сорян, есть таки это дэзовое завихрение в конце пятой темы.. Упустил из виду, когда в очередной раз отлучался отжимать переполненный слезами платок..
Go to the top of the page
  Insert nick Quick quote
+Quote Post

Reply to this topicStart new topic
1 User(s) are reading this topic (1 Guests and 0 Anonymous Users)
0 Members:

 



- Lo-Fi Version Support form
Copyrights and abuse reports form
Time is now: 22nd August 2018 - 08:27:46