Welcome Guest ( Log In | Register )

> Ascensions Fall - The Elegy Of The Lost Imperium (2018), Black Metal (D4)
post Mar 13 2018, 12:13:41
Post #1

Семь Литров
*******
Group: Металариец
Posts: 799
Releases: 671
From: Новороссийск
On Forums: 7 years 2 months
Thanks: 11412 time(s)
Russian Federation


(IMG:https://metalarea.org/images/audiocovers/2018_Mar/acov_tid303218_thumb.jpg)

*Artist: Ascensions Fall
*Album: The Elegy Of The Lost Imperium
*Year: 2018
*Genre: Black Metal
*Country: Australia (IMG:https://metalarea.org/forum/style_images/flags/Australia.png)
*Format: mp3@CBR320kbps
*Size: 89MB

Tracklist:
01. Eidolon - A Phantom Portrait 00:46
02. As The Empires Fall 04:30
03. Lychgate Domain 07:18
04. The Elegy Of The Lost Imperium 09:14
05. Feeble Screams From The Sacred Chambers 06:14
06. Divination Of The Superior Light 07:14
07. Conquering The Still Mist Night 03:26
******************************
Total playing time: 38:44




Technical info
(IMG:https://metalarea.org/images/spectrogram/2018_Mar/3d836f8bf27ad8578e5225a40fc9fc74.png)
Input File: 02 As The Empires Fall.mp3
Channels : 2
Sample Rate : 44100
Precision : 16-bit
Duration : 00:04:30.89 = 11946337 samples = 20316.9 CDDA sectors
File Size : 10.8M
Bit Rate : 320k
Sample Encoding: MPEG audio (layer I, II or III)
Comments :
Title=As The Empires Fall
Artist=Ascensions Fall
Album=The Elegy Of The Lost Imperium
Tracknumber=02
Year=2018
Genre=Black Metal



Register


Go to the top of the page
  Insert nick Quick quote
+Quote Post
 
Start new topic
Replies (1 - 1)
post Mar 13 2018, 16:51:08
Post #2

Маньяк
**********
Group: Металариец
Posts: 1,118
Releases: 0
From: Dnipro
On Forums: 10 years 1 week
Thanks: 297 time(s)
Ukraine


Я в твоя подвал, блэк метал играл, а может просто труба шатал, а получился метал (IMG:style_emoticons/default/5.gif)


Thanks:
Go to the top of the page
  Insert nick Quick quote
+Quote Post

Reply to this topicStart new topic
2 User(s) are reading this topic (2 Guests and 0 Anonymous Users)
0 Members:

 



- Lo-Fi Version Support form
Copyrights and abuse reports form
Time is now: 20th July 2018 - 17:36:52