Welcome Guest ( Log In | Register )

 
Reply to this topicStart new topic
> Siren's Rain - Beneath The Narrows [ep] (2018), Folk Metal
post Mar 13 2018, 12:37:54
Post #1

Serial Uploader
Group Icon
Group: V.I.P
Posts: 33,137
Releases: 31421
From: Lithuania
On Forums: 10 years 4 months
Thanks: 359286 time(s)
Lithuania


(IMG:https://metalarea.org/images/audiocovers/2018_Mar/acov_tid303219_thumb.jpg)

*Artist: Siren's Rain
*Album: Beneath The Narrows [ep]
*Year: 2018
*Genre: Folk Metal
*Country: United States (IMG:https://metalarea.org/forum/style_images/flags/United%20States.png)
*Format: mp3@CBR320kbps
*Size: 53MB

Tracklist:
01. Cadence Of Torment (Pride) 04:10
02. The Mermaid's Reverie 03:21
03. The Dark Lady 04:50
04. The Suicidal Starborne 06:45
05. Acerglyn 04:07
******************************
Total playing time: 23:13



Extended info
Exclusive for Metalarea.org


Technical info
(IMG:https://metalarea.org/images/spectrogram/2018_Mar/e4c37c775e99fbb8a9359e3cd978b3e8.png)
Input File: 02. The Mermaid\'s Reverie.mp3
Channels : 2
Sample Rate : 44100
Precision : 16-bit
Duration : 00:03:21.19 = 8872523 samples = 15089.3 CDDA sectors
File Size : 8.05M
Bit Rate : 320k
Sample Encoding: MPEG audio (layer I, II or III)
Comments :
Title=The Mermaid's Reverie
Artist=Siren's Rain
Album=Beneath the Narrows
Tracknumber=2/5
Year=2018



Register


Go to the top of the page
  Insert nick Quick quote
+Quote Post

Reply to this topicStart new topic
1 User(s) are reading this topic (1 Guests and 0 Anonymous Users)
0 Members:

 



- Lo-Fi Version Support form
Copyrights and abuse reports form
Time is now: 20th October 2018 - 18:17:28