Welcome Guest ( Log In | Register )

 
Reply to this topicStart new topic
> Drainage - Cavernous Cavities [single] (2018), Goregrind/Noisegrind
post Mar 13 2018, 13:36:49
Post #1

Serial Uploader
Group Icon
Group: V.I.P
Posts: 32,950
Releases: 31244
From: Lithuania
On Forums: 10 years 2 months
Thanks: 357683 time(s)
Lithuania


(IMG:https://metalarea.org/images/audiocovers/2018_Mar/acov_tid303223_thumb.jpg)

*Artist: Drainage
*Album: Cavernous Cavities [single]
*Year: 2018
*Genre: Goregrind/Noisegrind
*Country: Monaco (IMG:https://metalarea.org/forum/style_images/flags/Monaco.png)
*Format: mp3@CBR320kbps
*Size: 5MB

Tracklist:
01. Cavernous Cavities 02:00
******************************
Total playing time: 2:00




Technical info
(IMG:https://metalarea.org/images/spectrogram/2018_Mar/da95b6224527235efd42d6378f72a9a5.png)
Input File: 01. Cavernous Cavities.mp3
Channels : 2
Sample Rate : 44100
Precision : 16-bit
Duration : 00:02:00.15 = 5298527 samples = 9011.1 CDDA sectors
File Size : 5.04M
Bit Rate : 335k
Sample Encoding: MPEG audio (layer I, II or III)
Comments :
Title=Cavernous Cavities
Artist=Drainage
Album=Cavernous Cavities
Tracknumber=1
Year=2018



Register


Thanks:
Go to the top of the page
  Insert nick Quick quote
+Quote Post

Reply to this topicStart new topic
1 User(s) are reading this topic (1 Guests and 0 Anonymous Users)
0 Members:

 



- Lo-Fi Version Support form
Copyrights and abuse reports form
Time is now: 21st August 2018 - 10:54:58