Welcome Guest ( Log In | Register )

> Perky Macabre - Surrendering To The Abyss [ep] (2018), Grindcore (D39)
post Mar 13 2018, 13:54:45
Post #1

Serial Uploader
Group Icon
Group: V.I.P
Posts: 32,950
Releases: 31244
From: Lithuania
On Forums: 10 years 2 months
Thanks: 357683 time(s)
Lithuania


(IMG:https://metalarea.org/images/audiocovers/2018_Mar/acov_tid303224_thumb.jpg)

*Artist: Perky Macabre
*Album: Surrendering To The Abyss [ep]
*Year: 2018
*Genre: Grindcore
*Country: United States (IMG:https://metalarea.org/forum/style_images/flags/United%20States.png)
*Format: mp3@VBR211kbps
*Size: 5MB

Tracklist:
01. Death Is On My Mind 00:16
02. Prowling In The Dark 00:40
03. Nihilism In Black And White 00:51
04. Unveiling The Beast 00:56
05. Death Is In My Hands 00:41
******************************
Total playing time: 3:24



Technical info
(IMG:https://metalarea.org/images/spectrogram/2018_Mar/d7626ffcb7543eaf62d7bd04fe54d29e.png)
Input File: 02. Prowling In The Dark.mp3
Channels : 2
Sample Rate : 44100
Precision : 16-bit
Duration : 00:00:40.80 = 1799412 samples = 3060.22 CDDA sectors
File Size : 1.13M
Bit Rate : 221k
Sample Encoding: MPEG audio (layer I, II or III)
Comments :
Title=Prowling In The Dark
Artist=Perky Macabre
Album=Surrendering To The Abyss
Tracknumber=2
Year=2018



Register


Thanks:
Go to the top of the page
  Insert nick Quick quote
+Quote Post
 
Start new topic
Replies (1 - 3)
post Mar 13 2018, 14:04:11
Post #2

...
Group Icon
Group: S-moderation team
Posts: 6,511
Releases: 1275
On Forums: 7 years 5 months
Thanks: 32704 time(s)
Croatia


It is so nice that this band doesn't have metal archives page. I can't imagine having to make discography topic for them. It would take me many hours to create it, edit it and finish it. (IMG:style_emoticons/default/22.gif)


Thanks:
Go to the top of the page
  Insert nick Quick quote
+Quote Post
post Mar 13 2018, 14:26:13
Post #3

Serial Uploader
Group Icon
Group: V.I.P
Posts: 32,950
Releases: 31244
From: Lithuania
On Forums: 10 years 2 months
Thanks: 357683 time(s)
Lithuania


QUOTE(Borderline1991 @ Mar 13 2018, 17:04:11) *
It is so nice that this band doesn't have metal archives page. I can't imagine having to make discography topic for them. It would take me many hours to create it, edit it and finish it. (IMG:style_emoticons/default/22.gif)


It's a complicated thing to keep track of your continuous discography. They make a new album every week. And the style they play is not acceptable to everyone. Exactly it can be described as raw garage grind.


Go to the top of the page
  Insert nick Quick quote
+Quote Post
post Mar 13 2018, 19:16:05
Post #4

Правь статус, ####!111
**************
Group: Металариец
Posts: 2,413
Releases: 0
From: Одесса
On Forums: 10 years 5 months
Thanks: 900 time(s)
Ukraine


if only it was a band.
style "noise made by children in parents garage"
Go to the top of the page
  Insert nick Quick quote
+Quote Post

Reply to this topicStart new topic
1 User(s) are reading this topic (1 Guests and 0 Anonymous Users)
0 Members:

 



- Lo-Fi Version Support form
Copyrights and abuse reports form
Time is now: 21st August 2018 - 10:55:01