Welcome Guest ( Log In | Register )

 
Reply to this topicStart new topic
> Perky Macabre - The Cauldron Glow [ep] (2018), Grindcore (D40)
post Mar 13 2018, 14:17:43
Post #1

Serial Uploader
Group Icon
Group: V.I.P
Posts: 32,863
Releases: 31159
From: Lithuania
On Forums: 10 years 1 month
Thanks: 356932 time(s)
Lithuania


(IMG:https://metalarea.org/images/audiocovers/2018_Mar/acov_tid303225_thumb.jpg)

*Artist: Perky Macabre
*Album: The Cauldron Glow [ep]
*Year: 2018
*Genre: Grindcore
*Country: United States (IMG:https://metalarea.org/forum/style_images/flags/United%20States.png)
*Format: mp3@VBR214kbps
*Size: 9MB

Tracklist:
01. Hex 01:15
02. Void 01:31
03. Glow 01:34
04. Eon 01:06
******************************
Total playing time: 5:26



Technical info
(IMG:https://metalarea.org/images/spectrogram/2018_Mar/de7277b250bf63adea60f36893a5d916.png)
Input File: 02. Void.mp3
Channels : 2
Sample Rate : 44100
Precision : 16-bit
Duration : 00:01:31.30 = 4026198 samples = 6847.28 CDDA sectors
File Size : 2.57M
Bit Rate : 225k
Sample Encoding: MPEG audio (layer I, II or III)
Comments :
Title=Void
Artist=Perky Macabre
Album=The Cauldron Glow
Tracknumber=2
Year=2018



Register


Thanks:
Go to the top of the page
  Insert nick Quick quote
+Quote Post

Reply to this topicStart new topic
2 User(s) are reading this topic (2 Guests and 0 Anonymous Users)
0 Members:

 



- Lo-Fi Version Support form
Copyrights and abuse reports form
Time is now: 20th July 2018 - 17:17:17