Welcome Guest ( Log In | Register )

 
Reply to this topicStart new topic
> Storm Kvlt - Demo 2018 [demo] (2018), Pagan Black Metal
post Mar 13 2018, 14:50:28
Post #1

Правь статус, ####!111
**************
Group: Металариец
Posts: 2,275
Releases: 1014
From: Гиперборе́я
On Forums: 7 years 7 months
Thanks: 21284 time(s)
Russian Federation


(IMG:https://metalarea.org/images/audiocovers/2018_Mar/acov_tid303226_thumb.jpg)

*Artist: Storm Kvlt
*Album: Demo 2018 [demo]
*Year: 2018
*Genre: Pagan Black Metal
*Country: Germany (IMG:https://metalarea.org/forum/style_images/flags/Germany.png)
*Format: mp3@CBR320kbps
*Size: 53MB

Tracklist:
01. Wenn Schwere Winde Sich Heben 04:31
02. Der Gott Der Stadt 04:17
03. Eala Frya Fresena 04:26
04. Grimnismal 09:20
******************************
Total playing time: 22:34



(IMG:https://metalarea.org/images/youtube.png)

Technical info
(IMG:https://metalarea.org/images/spectrogram/2018_Mar/7f268c46837d5bd90d9d243747a7aa9d.png)
Input File: 02 - Der Gott Der Stadt.mp3
Channels : 2
Sample Rate : 44100
Precision : 16-bit
Duration : 00:04:17.26 = 11344946 samples = 19294.1 CDDA sectors
File Size : 10.3M
Bit Rate : 320k
Sample Encoding: MPEG audio (layer I, II or III)
Comments :
Title=Der Gott der Stadt
Artist=Storm Kvlt
Album=Demo 2018
Tracknumber=02/04
Year=2018
Genre=Pagan Black Metal



Register


Go to the top of the page
  Insert nick Quick quote
+Quote Post

Reply to this topicStart new topic
1 User(s) are reading this topic (1 Guests and 0 Anonymous Users)
0 Members:

 



- Lo-Fi Version Support form
Copyrights and abuse reports form
Time is now: 20th June 2018 - 19:49:07